请选择 进入手机版 | 继续访问电脑版
本站Q群713428235【盘盘多】已满,请新会员加原盘天堂新官方QQ群709708625【好多盘】,验证信息填写您在论坛的会员名,不填会员名的无法入群哈,进群后修改您的群名片名字为您在论坛的会员名,请务必修改,否则群成员多了不知道您是哪个会员。

原盘天堂

 找回密码
 立即注册
京东商城当当华为商城名牌时尚折扣网,一个新型的网上购物平台,我们每周为您精选3~4个国际知名品牌,商品折扣低至2折限时限量售卖,商品囊括时装、护肤品、箱包、皮具、配饰、香水等等,琳琅满目。亿格瑞A10硬盘播放器 苏宁易购
查看: 280|回复: 15

2d蓝光原盘bdmv 世界新闻 英语原版 news.of.the.world.2020.1080p.bluray.avc.truehd.7.1.atmos[45.28 GB]

[复制链接]

5851

主题

6475

帖子

132万

积分

管理员

Rank: 18Rank: 18Rank: 18Rank: 18Rank: 18

积分
1327882
发表于 2021-3-17 09:30:56 | 显示全部楼层 |阅读模式








世界新闻 News of the World (2020)

导演: 保罗·格林格拉斯
编剧: 保罗·格林格拉斯 / 卢克·戴维斯 / 波莱特·吉尔斯
主演: 汤姆·汉克斯 / 海伦娜·泽格尔 / 伊丽莎白·玛维尔 / 雷·迈克金农 / 梅尔·温宁汉姆 / 更多...
类型: 剧情 / 动作 / 西部 / 冒险
制片国家/地区: 美国
语言: 英语
上映日期: 2020-12-25(美国) / 2021-01-15(美国网络)
片长: 118分钟
又名: 结叛同行(港) / 读报人(台)

豆瓣评分
7.1
3583人评价
5星 9.9%
4星 38.9%
3星 45.8%
2星 4.8%
1星 0.7%
好于 38% 西部片
好于 32% 剧情片

剧情简介 · · · · · ·
  美国内战结束后五年,三场战争的退伍军官杰佛森凯尔基得上尉(汤姆·汉克斯 饰),现在以读报人的身份从一个小镇到另一个小镇,和当地居民分享世界各地的精彩新闻。他在德州的平原遇到乔韩娜(海伦娜·泽格尔 饰),一 个六年前被凯奥瓦印第安人掳走并被收养的十岁女孩。乔韩娜对她未曾体验过的世界充满敌意,而且被迫被送回她的阿姨和姨丈身边。基得上尉答应护送这女孩回到她依照法律应该属于的地方。他们必须在环境严苛的野外跋山涉水好几百英哩,而且这两人在寻找一个他们都可以称为家园的地方时,将面对来自人类和大自然的巨大挑战。
  该片根据波莱特·吉尔斯同名小说改编。

世界新闻 News of the World 获奖情况
第93届奥斯卡金像奖  (2021)
最佳摄影(提名) 达瑞兹·沃斯基
最佳音响(提名) 约翰·普里切特 / 迈克·普雷斯特伍德·史密斯 / 奥利弗·塔尔尼
最佳艺术指导(提名) 伊丽莎白·基南 / 大卫·格兰克
最佳原创配乐(提名) 詹姆斯·纽顿·霍华德
第78届金球奖  (2021)
电影类 最佳女配角(提名) 海伦娜·泽格尔
电影类 最佳原创配乐(提名)
第74届英国电影学院奖  (2021)
电影奖 最佳摄影(提名)
电影奖 最佳艺术指导(提名)
电影奖 最佳原创配乐(提名)
电影奖 最佳音效(提名)
第27届美国演员工会奖  (2021)
电影奖 最佳女配角(提名) 海伦娜·泽格尔
电影最佳特技群戏(提名)
第25届美国艺术指导工会奖  (2021)
电影奖 最佳历史电影艺术指导(提名) 大卫·格兰克
第68届美国音效剪辑协会奖  (2021)
金卷轴奖 最佳电影音效剪辑(提名)
金卷轴奖 最佳电影对白剪辑(提名)
金卷轴奖 最佳配乐剪辑(提名)
第19届美国视觉效果协会奖  (2021)
最佳电影辅助视觉效果(提名)
第92届美国国家评论协会奖  (2020)
最佳改编剧本 卢克·戴维斯 / 保罗·格林格拉斯
年度佳片
第26届美国评论家选择电影奖  (2021)
最佳影片(提名)
最佳男主角(提名) 汤姆·汉克斯
最佳青少年演员(提名) 海伦娜·泽格尔
最佳改编剧本(提名) 卢克·戴维斯 / 保罗·格林格拉斯
最佳摄影(提名) 达瑞兹·沃斯基
最佳配乐(提名) 詹姆斯·纽顿·霍华德
最佳美术指导(提名) 伊丽莎白·基南 / 大卫·格兰克
第25届金卫星奖  (2021)
电影部门 最佳女配角(提名) 海伦娜·泽格尔
电影部门 最佳改编剧本(提名) 卢克·戴维斯 / 保罗·格林格拉斯
电影部门 最佳原创配乐(提名) 詹姆斯·纽顿·霍华德
电影部门 最佳摄影(提名) 达瑞兹·沃斯基
第33届芝加哥影评人协会奖  (2020)
最具潜力演员(提名) 海伦娜·泽格尔
第5届亚特兰大影评人协会奖  (2020)
最佳摄影(提名)

DISC INFO:

Disc Title:     News.of.the.World.2020.1080p.BluRay.AVC.TrueHD.7.1.Atmos-NOGRP
Disc Size:      48,619,500,759 bytes
Protection:     AACS
Extras:         BD-Java
BDInfo:         0.7.5.9 (compatible layout created by DVDFab 12.0.1.9)

PLAYLIST REPORT:

Name:                   00800.MPLS  
Length:                 1:58:15.797 (h:m:s.ms)
Size:                   37,844,262,912 bytes
Total Bitrate:          42.67 Mbps

VIDEO:

Codec                   Bitrate             Description     
-----                   -------             -----------     
MPEG-4 AVC Video        33100 kbps          1080p / 23.976 fps / 16:9 / High Profile 4.1

AUDIO:

Codec                           Language        Bitrate         Description     
-----                           --------        -------         -----------     
Dolby TrueHD/Atmos Audio        English         4740 kbps       7.1+11 objects / 48 kHz / 4292 kbps / 24-bit (AC3 Core: 5.1 / 48 kHz / 448 kbps)
Dolby Digital Audio             Spanish         640 kbps        5.1 / 48 kHz / 640 kbps
Dolby Digital Audio             French          640 kbps        5.1 / 48 kHz / 640 kbps
Dolby Digital Audio             English         192 kbps        2.0 / 48 kHz / 192 kbps
Dolby Digital Audio             English         192 kbps        2.0 / 48 kHz / 192 kbps

SUBTITLES:

Codec                           Language        Bitrate         Description     
-----                           --------        -------         -----------     
Presentation Graphics           English         25.276 kbps                     
Presentation Graphics           Spanish         17.843 kbps                     
Presentation Graphics           French          18.47 kbps                     
Presentation Graphics           Spanish         0.827 kbps                     
Presentation Graphics           French          0.907 kbps     

Video
ID : 1
ID in the original source medium : 4113 (0x1011)
Format : AVC
Format/Info : Advanced Video Codec
Format profile : [email protected]
Format settings : CABAC / 4 Ref Frames
Format settings, CABAC : Yes
Format settings, Reference frames : 4 frames
Codec ID : V_MPEG4/ISO/AVC
Duration : 1 h 58 min
Bit rate mode : Variable
Bit rate : 32.4 Mb/s
Maximum bit rate : 35.0 Mb/s
Width : 1 920 pixels
Height : 1 080 pixels
Display aspect ratio : 16:9
Frame rate mode : Constant
Frame rate : 23.976 (24000/1001) FPS
Color space : YUV
Chroma subsampling : 4:2:0
Bit depth : 8 bits
Scan type : Progressive
Bits/(Pixel*Frame) : 0.653
Stream size : 26.8 GiB (75%)
Language : English
Default : No
Forced : No
Original source medium : Blu-ray

Audio #1
ID : 2
ID in the original source medium : 4352 (0x1100)
Format : MLP FBA 16-ch
Format/Info : Meridian Lossless Packing FBA with 16-channel presentation
Commercial name : Dolby TrueHD with Dolby Atmos
Codec ID : A_TRUEHD
Duration : 1 h 58 min
Bit rate mode : Variable
Bit rate : 4 292 kb/s
Maximum bit rate : 8 112 kb/s
Channel(s) : 8 channels
Channel layout : L R C LFE Ls Rs Lb Rb
Sampling rate : 48.0 kHz
Frame rate : 1 200.000 FPS (40 SPF)
Compression mode : Lossless
Stream size : 3.55 GiB (10%)
Title : TrueHD 7.1 Atmos
Language : English
Default : Yes
Forced : No
Original source medium : Blu-ray
Number of dynamic objects : 11
Bed channel count : 1 channel
Bed channel configuration : LFE

Audio #2
ID : 3
Format : DTS XLL
Format/Info : Digital Theater Systems
Commercial name : DTS-HD Master Audio
Codec ID : A_DTS
Duration : 1 h 58 min
Bit rate mode : Variable
Bit rate : 4 231 kb/s
Channel(s) : 8 channels
Channel layout : C L R LFE Lb Rb Lss Rss
Sampling rate : 48.0 kHz
Frame rate : 93.750 FPS (512 SPF)
Bit depth : 24 bits
Compression mode : Lossless
Stream size : 3.50 GiB (10%)
Title : DTS-HD MA 7.1
Language : English
Default : No
Forced : No

Audio #3
ID : 4
ID in the original source medium : 4352 (0x1100)
Format : AC-3
Format/Info : Audio Coding 3
Commercial name : Dolby Digital
Codec ID : A_AC3
Duration : 1 h 58 min
Bit rate mode : Constant
Bit rate : 448 kb/s
Channel(s) : 6 channels
Channel layout : L R C LFE Ls Rs
Sampling rate : 48.0 kHz
Frame rate : 31.250 FPS (1536 SPF)
Compression mode : Lossy
Stream size : 379 MiB (1%)
Title : DD 5.1
Language : English
Service kind : Complete Main
Default : No
Forced : No
Original source medium : Blu-ray

Audio #4
ID : 5
ID in the original source medium : 4353 (0x1101)
Format : AC-3
Format/Info : Audio Coding 3
Commercial name : Dolby Digital
Codec ID : A_AC3
Duration : 1 h 58 min
Bit rate mode : Constant
Bit rate : 640 kb/s
Channel(s) : 6 channels
Channel layout : L R C LFE Ls Rs
Sampling rate : 48.0 kHz
Frame rate : 31.250 FPS (1536 SPF)
Compression mode : Lossy
Stream size : 541 MiB (1%)
Title : DD 5.1
Language : Spanish
Service kind : Complete Main
Default : No
Forced : No
Original source medium : Blu-ray

Audio #5
ID : 6
ID in the original source medium : 4354 (0x1102)
Format : AC-3
Format/Info : Audio Coding 3
Commercial name : Dolby Digital
Codec ID : A_AC3
Duration : 1 h 58 min
Bit rate mode : Constant
Bit rate : 640 kb/s
Channel(s) : 6 channels
Channel layout : L R C LFE Ls Rs
Sampling rate : 48.0 kHz
Frame rate : 31.250 FPS (1536 SPF)
Compression mode : Lossy
Stream size : 541 MiB (1%)
Title : DD 5.1
Language : French
Service kind : Complete Main
Default : No
Forced : No
Original source medium : Blu-ray

Audio #6
ID : 7
ID in the original source medium : 4355 (0x1103)
Format : AC-3
Format/Info : Audio Coding 3
Commercial name : Dolby Digital
Codec ID : A_AC3
Duration : 1 h 58 min
Bit rate mode : Constant
Bit rate : 192 kb/s
Channel(s) : 2 channels
Channel layout : L R
Sampling rate : 48.0 kHz
Frame rate : 31.250 FPS (1536 SPF)
Compression mode : Lossy
Stream size : 162 MiB (0%)
Title : DD 2.0
Language : English
Service kind : Complete Main
Default : No
Forced : No
Original source medium : Blu-ray

Audio #7
ID : 8
ID in the original source medium : 4356 (0x1104)
Format : AC-3
Format/Info : Audio Coding 3
Commercial name : Dolby Digital
Codec ID : A_AC3
Duration : 1 h 58 min
Bit rate mode : Constant
Bit rate : 192 kb/s
Channel(s) : 2 channels
Channel layout : L R
Sampling rate : 48.0 kHz
Frame rate : 31.250 FPS (1536 SPF)
Compression mode : Lossy
Stream size : 162 MiB (0%)
Title : DD 2.0
Language : English
Service kind : Complete Main
Default : No
Forced : No
Original source medium : Blu-ray

Text #1
ID : 9
Format : UTF-8
Codec ID : S_TEXT/UTF8
Codec ID/Info : UTF-8 Plain Text
Duration : 1 h 50 min
Bit rate : 31 b/s
Count of elements : 927
Stream size : 25.6 KiB (0%)
Title : English-SRT
Language : English
Default : Yes
Forced : No

Text #2
ID : 10
ID in the original source medium : 4608 (0x1200)
Format : PGS
Muxing mode : zlib
Codec ID : S_HDMV/PGS
Codec ID/Info : Picture based subtitle format used on BDs/HD-DVDs
Duration : 1 h 52 min
Bit rate : 26.7 kb/s
Count of elements : 2353
Stream size : 21.4 MiB (0%)
Title : English-PGS
Language : English
Default : No
Forced : No
Original source medium : Blu-ray

Text #3
ID : 11
ID in the original source medium : 4609 (0x1201)
Format : PGS
Muxing mode : zlib
Codec ID : S_HDMV/PGS
Codec ID/Info : Picture based subtitle format used on BDs/HD-DVDs
Duration : 1 h 56 min
Bit rate : 18.1 kb/s
Count of elements : 1822
Stream size : 15.1 MiB (0%)
Title : Spanish-PGS
Language : Spanish
Default : No
Forced : No
Original source medium : Blu-ray

Text #4
ID : 12
ID in the original source medium : 4610 (0x1202)
Format : PGS
Muxing mode : zlib
Codec ID : S_HDMV/PGS
Codec ID/Info : Picture based subtitle format used on BDs/HD-DVDs
Duration : 1 h 56 min
Bit rate : 18.7 kb/s
Count of elements : 1886
Stream size : 15.6 MiB (0%)
Title : French-PGS
Language : French
Default : No
Forced : No
Original source medium : Blu-ray

Text #5
ID : 13
ID in the original source medium : 4611 (0x1203)
Format : PGS
Muxing mode : zlib
Codec ID : S_HDMV/PGS
Codec ID/Info : Picture based subtitle format used on BDs/HD-DVDs
Duration : 1 h 56 min
Bit rate : 836 b/s
Count of elements : 98
Stream size : 716 KiB (0%)
Title : Spanish-FORCED-PGS
Language : Spanish
Default : No
Forced : No
Original source medium : Blu-ray

Text #6
ID : 14
ID in the original source medium : 4612 (0x1204)
Format : PGS
Muxing mode : zlib
Codec ID : S_HDMV/PGS
Codec ID/Info : Picture based subtitle format used on BDs/HD-DVDs
Duration : 1 h 56 min
Bit rate : 917 b/s
Count of elements : 102
Stream size : 785 KiB (0%)
Title : French-FORCED-PGS
Language : French
Default : No
Forced : No
Original source medium : Blu-ray

Menu
00:00:00.000 : en:Chapter 01
00:03:43.765 : en:Chapter 02
00:11:33.317 : en:Chapter 03
00:15:29.762 : en:Chapter 04
00:22:58.377 : en:Chapter 05
00:30:33.706 : en:Chapter 06
00:35:44.934 : en:Chapter 07
00:42:12.988 : en:Chapter 08
00:47:37.855 : en:Chapter 09
00:55:02.841 : en:Chapter 10
00:58:51.611 : en:Chapter 11
01:03:49.784 : en:Chapter 12
01:12:24.715 : en:Chapter 13
01:18:05.931 : en:Chapter 14
01:25:35.922 : en:Chapter 15
01:31:39.327 : en:Chapter 16
01:37:36.809 : en:Chapter 17
01:42:54.209 : en:Chapter 18
01:46:20.749 : en:Chapter 19
01:53:34.891 : en:Chapter 20

本帖子中包含更多资源

您需要 登录 才可以下载或查看,没有帐号?立即注册

x
回复

使用道具 举报

0

主题

697

帖子

3513

积分

论坛元老

Rank: 8Rank: 8

积分
3513
发表于 2021-3-17 10:25:15 | 显示全部楼层
谢谢楼主分享 楼主辛苦了
回复

使用道具 举报

0

主题

637

帖子

3347

积分

论坛元老

Rank: 8Rank: 8

积分
3347
发表于 2021-3-17 12:26:40 | 显示全部楼层
谢楼主分享
回复

使用道具 举报

0

主题

1123

帖子

8440

积分

VIP永久

Rank: 12Rank: 12Rank: 12

积分
8440
发表于 2021-3-17 13:01:11 | 显示全部楼层
感谢楼主分享!!!!
回复

使用道具 举报

0

主题

1159

帖子

5008

积分

论坛元老

Rank: 8Rank: 8

积分
5008
发表于 2021-3-17 19:51:26 | 显示全部楼层
感谢楼主分享
回复

使用道具 举报

0

主题

523

帖子

2570

积分

金牌会员

Rank: 6Rank: 6

积分
2570
发表于 2021-3-17 20:07:50 | 显示全部楼层
感谢楼主分享!
回复

使用道具 举报

0

主题

82

帖子

514

积分

高级会员

Rank: 4

积分
514
发表于 2021-3-18 08:32:43 | 显示全部楼层

谢谢楼主
回复

使用道具 举报

0

主题

637

帖子

3347

积分

论坛元老

Rank: 8Rank: 8

积分
3347
发表于 2021-3-18 09:41:03 | 显示全部楼层
谢楼主分享
回复

使用道具 举报

0

主题

10

帖子

73

积分

注册会员

Rank: 2

积分
73
发表于 2021-3-18 10:46:57 | 显示全部楼层
下了20小時了.......才48%
回复

使用道具 举报

0

主题

697

帖子

3513

积分

论坛元老

Rank: 8Rank: 8

积分
3513
发表于 2021-3-18 15:14:43 | 显示全部楼层
谢谢楼主分享
回复

使用道具 举报

您需要登录后才可以回帖 登录 | 立即注册

本版积分规则

QQ|Archiver|手机版|小黑屋|原盘天堂 好多盘 点击这里给我发消息

GMT+8, 2021-4-16 01:37 , Processed in 0.065426 second(s), 25 queries .

Powered by Discuz! X3.4

Copyright © 2001-2020, Tencent Cloud.

快速回复 返回顶部 返回列表