请选择 进入手机版 | 继续访问电脑版
本站Q群713428235【盘盘多】已满,请新会员加原盘天堂新官方QQ群709708625【好多盘】,验证信息填写您在论坛的会员名,不填会员名的无法入群哈,进群后修改您的群名片名字为您在论坛的会员名,请务必修改,否则群成员多了不知道您是哪个会员。

原盘天堂

 找回密码
 立即注册
京东商城当当华为商城名牌时尚折扣网,一个新型的网上购物平台,我们每周为您精选3~4个国际知名品牌,商品折扣低至2折限时限量售卖,商品囊括时装、护肤品、箱包、皮具、配饰、香水等等,琳琅满目。亿格瑞A10硬盘播放器 苏宁易购
查看: 258|回复: 21

4k蓝光原盘bdmv 千钧一发 中文字幕 gattaca.1997.2160p.bluray.hevc.truehd.7.1.atmos[53.42 GB]

[复制链接]

5851

主题

6475

帖子

132万

积分

管理员

Rank: 18Rank: 18Rank: 18Rank: 18Rank: 18

积分
1327882
发表于 2021-3-14 18:32:48 | 显示全部楼层 |阅读模式






千钧一发 Gattaca (1997)

导演: 安德鲁·尼科尔
编剧: 安德鲁·尼科尔
主演: 伊桑·霍克 / 乌玛·瑟曼 / 裘德·洛 / 艾伦·阿金 / 戈尔·维达尔 / 更多...
类型: 剧情 / 科幻 / 惊悚
制片国家/地区: 美国
语言: 英语 / 世界语
上映日期: 1997-10-24(美国)
片长: 106分钟
又名: 变种异煞(港) / 自然人 / 戛塔卡 / 伽蒂卡 / 太空梦 / 基因代码

豆瓣评分
8.8
208546人评价
5星 49.6%
4星 40.6%
3星 9.1%
2星 0.6%
1星 0.1%
好于 97% 科幻片
好于 96% 剧情片

剧情简介 · · · · · ·
  未来的世界,科技的力量胜过一切,基因决定命运,几乎成为金科玉律。不幸文森特(伊桑•霍克 Ethan Hawke 饰)是一个基因不良的人,出生以来就决定了他近视和心脏病的缺陷,他只能活到30岁。于是父母为文森特增添了一个有着优良基因的弟弟。
  文森特的梦想是漫游太空,然而恶劣的基因令他无法圆梦,直到他遇到了太空中心的杰罗姆(裘德•洛 Jude Law 饰)。杰罗姆有优秀的基因,却在一次意外中半身瘫痪。二人决定调换身份,文森特千方百计隐藏自己的基因信息,每天都认真清洗掉自己的皮屑毛发,不暴露任何蛛丝马迹。另一方面,杰罗姆帮他筹备进入太空前需要检查的基因物品。事情进展得非常顺利,然而一桩谋杀案和一根睫毛,让事情节外生枝。

千钧一发 Gattaca 获奖情况
第70届奥斯卡金像奖  (1998)
最佳艺术指导(提名) 南希·奈 / 扬·鲁洛尔夫斯
第55届金球奖  (1998)
电影类 最佳原创配乐(提名) 迈克尔·尼曼


DISC INFO:

Disc Title:     Gattaca.1997.2160p.BluRay.HEVC.TrueHD.7.1.Atmos-ESiR
Disc Size:      57,337,901,162 bytes
Protection:     AACS2
Extras:         Ultra HD, BD-Java
BDInfo:         0.7.5.9 (compatible layout created by DVDFab 12.0.1.9)

PLAYLIST REPORT:

Name:                   00001.MPLS  
Length:                 1:46:29.382 (h:m:s.ms)
Size:                   56,645,707,776 bytes
Total Bitrate:          70.92 Mbps

VIDEO:

Codec                   Bitrate             Description     
-----                   -------             -----------     
MPEG-H HEVC Video       55928 kbps          2160p / 23.976 fps / 16:9 / Main 10 @ Level 5.1 @ High / 4:2:0 / 10 bits / 4000nits / HDR10 / BT.2020

AUDIO:

Codec                           Language        Bitrate         Description     
-----                           --------        -------         -----------     
Dolby TrueHD/Atmos Audio        English         5280 kbps       7.1+11 objects / 48 kHz / 4640 kbps / 24-bit (AC3 Core: 5.1 / 48 kHz / 640 kbps)
DTS-HD Master Audio             English         2221 kbps       5.1 / 48 kHz / 2221 kbps / 24-bit (DTS Core: 5.1 / 48 kHz / 1509 kbps / 24-bit)
Dolby Digital Audio             French          640 kbps        5.1 / 48 kHz / 640 kbps
Dolby Digital Audio             German          640 kbps        5.1 / 48 kHz / 640 kbps
Dolby Digital Audio             Italian         640 kbps        5.1 / 48 kHz / 640 kbps
Dolby Digital Audio             Japanese        640 kbps        5.1 / 48 kHz / 640 kbps
Dolby Digital Audio             Spanish         640 kbps        5.1 / 48 kHz / 640 kbps

SUBTITLES:

Codec                           Language        Bitrate         Description     
-----                           --------        -------         -----------     
Presentation Graphics           English         27.818 kbps                     
Presentation Graphics           English         25.636 kbps                     
Presentation Graphics           English         27.83 kbps                     
Presentation Graphics           English         25.63 kbps                     
Presentation Graphics           Arabic          12.01 kbps                     
Presentation Graphics           Chinese         19.471 kbps                     
Presentation Graphics           Croatian        20.547 kbps                     
Presentation Graphics           Czech           19.43 kbps                     
Presentation Graphics           Danish          19.615 kbps                     
Presentation Graphics           Dutch           20.355 kbps                     
Presentation Graphics           Finnish         20.308 kbps                     
Presentation Graphics           French          19.678 kbps                     
Presentation Graphics           German          22.081 kbps                     
Presentation Graphics           Greek           22.287 kbps                     
Presentation Graphics           Hebrew          17.502 kbps                     
Presentation Graphics           Hungarian       20.136 kbps                     
Presentation Graphics           Italian         22.262 kbps                     
Presentation Graphics           Japanese        15.923 kbps                     
Presentation Graphics           Korean          19.082 kbps                     
Presentation Graphics           Norwegian       19.618 kbps                     
Presentation Graphics           Polish          21.209 kbps                     
Presentation Graphics           Portuguese      22.953 kbps                     
Presentation Graphics           Portuguese      23.621 kbps                     
Presentation Graphics           Romanian        22.155 kbps                     
Presentation Graphics           Slovak          20.283 kbps                     
Presentation Graphics           Slovenian       19.105 kbps                     
Presentation Graphics           Spanish         22.572 kbps                     
Presentation Graphics           Spanish         25.786 kbps                     
Presentation Graphics           Swedish         16.803 kbps                     
Presentation Graphics           Thai            21.93 kbps                     
Presentation Graphics           Turkish         21.959 kbps                     
Presentation Graphics           Japanese        0.16 kbps

Video
ID : 1
ID in the original source medium : 4113 (0x1011)
Format : HEVC
Format/Info : High Efficiency Video Coding
Format profile : Main [email protected]@High
HDR format : SMPTE ST 2086, HDR10 compatible
Codec ID : V_MPEGH/ISO/HEVC
Duration : 1 h 46 min
Bit rate : 55.9 Mb/s
Width : 3 840 pixels
Height : 2 160 pixels
Display aspect ratio : 16:9
Frame rate mode : Constant
Frame rate : 23.976 (24000/1001) FPS
Color space : YUV
Chroma subsampling : 4:2:0 (Type 2)
Bit depth : 10 bits
Bits/(Pixel*Frame) : 0.281
Stream size : 41.6 GiB (81%)
Language : English
Default : No
Forced : No
Color range : Limited
Color primaries : BT.2020
Transfer characteristics : PQ
Matrix coefficients : BT.2020 non-constant
Mastering display color primaries : Display P3
Mastering display luminance : min: 0.0050 cd/m2, max: 4000 cd/m2
Maximum Content Light Level : 5340 cd/m2
Maximum Frame-Average Light Level : 514 cd/m2
Original source medium : Blu-ray

Audio #1
ID : 2
ID in the original source medium : 4352 (0x1100)
Format : MLP FBA 16-ch
Format/Info : Meridian Lossless Packing FBA with 16-channel presentation
Commercial name : Dolby TrueHD with Dolby Atmos
Codec ID : A_TRUEHD
Duration : 1 h 46 min
Bit rate mode : Variable
Bit rate : 4 640 kb/s
Maximum bit rate : 7 479 kb/s
Channel(s) : 8 channels
Channel layout : L R C LFE Ls Rs Lb Rb
Sampling rate : 48.0 kHz
Frame rate : 1 200.000 FPS (40 SPF)
Compression mode : Lossless
Stream size : 3.45 GiB (7%)
Title : TrueHD 7.1 Atmos
Language : English
Default : Yes
Forced : No
Original source medium : Blu-ray
Number of dynamic objects : 11
Bed channel count : 1 channel
Bed channel configuration : LFE

Audio #2
ID : 3
Format : DTS XLL
Format/Info : Digital Theater Systems
Commercial name : DTS-HD Master Audio
Codec ID : A_DTS
Duration : 1 h 46 min
Bit rate mode : Variable
Bit rate : 4 187 kb/s
Channel(s) : 8 channels
Channel layout : C L R LFE Lb Rb Lss Rss
Sampling rate : 48.0 kHz
Frame rate : 93.750 FPS (512 SPF)
Bit depth : 24 bits
Compression mode : Lossless
Stream size : 3.11 GiB (6%)
Title : DTS-HD MA 7.1
Language : English
Default : No
Forced : No

Audio #3
ID : 4
Format : AC-3
Format/Info : Audio Coding 3
Commercial name : Dolby Digital
Codec ID : A_AC3
Duration : 1 h 46 min
Bit rate mode : Constant
Bit rate : 640 kb/s
Channel(s) : 6 channels
Channel layout : L R C LFE Ls Rs
Sampling rate : 48.0 kHz
Frame rate : 31.250 FPS (1536 SPF)
Compression mode : Lossy
Stream size : 487 MiB (1%)
Title : DD 5.1
Language : English
Service kind : Complete Main
Default : No
Forced : No

Audio #4
ID : 5
ID in the original source medium : 4354 (0x1102)
Format : AC-3
Format/Info : Audio Coding 3
Commercial name : Dolby Digital
Codec ID : A_AC3
Duration : 1 h 46 min
Bit rate mode : Constant
Bit rate : 640 kb/s
Channel(s) : 6 channels
Channel layout : L R C LFE Ls Rs
Sampling rate : 48.0 kHz
Frame rate : 31.250 FPS (1536 SPF)
Compression mode : Lossy
Stream size : 487 MiB (1%)
Title : DD 5.1
Language : French
Service kind : Complete Main
Default : No
Forced : No
Original source medium : Blu-ray

Audio #5
ID : 6
ID in the original source medium : 4355 (0x1103)
Format : AC-3
Format/Info : Audio Coding 3
Commercial name : Dolby Digital
Codec ID : A_AC3
Duration : 1 h 46 min
Bit rate mode : Constant
Bit rate : 640 kb/s
Channel(s) : 6 channels
Channel layout : L R C LFE Ls Rs
Sampling rate : 48.0 kHz
Frame rate : 31.250 FPS (1536 SPF)
Compression mode : Lossy
Stream size : 487 MiB (1%)
Title : DD 5.1
Language : German
Service kind : Complete Main
Default : No
Forced : No
Original source medium : Blu-ray

Audio #6
ID : 7
ID in the original source medium : 4356 (0x1104)
Format : AC-3
Format/Info : Audio Coding 3
Commercial name : Dolby Digital
Codec ID : A_AC3
Duration : 1 h 46 min
Bit rate mode : Constant
Bit rate : 640 kb/s
Channel(s) : 6 channels
Channel layout : L R C LFE Ls Rs
Sampling rate : 48.0 kHz
Frame rate : 31.250 FPS (1536 SPF)
Compression mode : Lossy
Stream size : 487 MiB (1%)
Title : DD 5.1
Language : Italian
Service kind : Complete Main
Default : No
Forced : No
Original source medium : Blu-ray

Audio #7
ID : 8
ID in the original source medium : 4357 (0x1105)
Format : AC-3
Format/Info : Audio Coding 3
Commercial name : Dolby Digital
Codec ID : A_AC3
Duration : 1 h 46 min
Bit rate mode : Constant
Bit rate : 640 kb/s
Channel(s) : 6 channels
Channel layout : L R C LFE Ls Rs
Sampling rate : 48.0 kHz
Frame rate : 31.250 FPS (1536 SPF)
Compression mode : Lossy
Stream size : 487 MiB (1%)
Title : DD 5.1
Language : Japanese
Service kind : Complete Main
Default : No
Forced : No
Original source medium : Blu-ray

Audio #8
ID : 9
ID in the original source medium : 4358 (0x1106)
Format : AC-3
Format/Info : Audio Coding 3
Commercial name : Dolby Digital
Codec ID : A_AC3
Duration : 1 h 46 min
Bit rate mode : Constant
Bit rate : 640 kb/s
Channel(s) : 6 channels
Channel layout : L R C LFE Ls Rs
Sampling rate : 48.0 kHz
Frame rate : 31.250 FPS (1536 SPF)
Compression mode : Lossy
Stream size : 487 MiB (1%)
Title : DD 5.1
Language : Spanish
Service kind : Complete Main
Default : No
Forced : No
Original source medium : Blu-ray

Text #1
ID : 10
Format : UTF-8
Codec ID : S_TEXT/UTF8
Codec ID/Info : UTF-8 Plain Text
Duration : 1 h 38 min
Bit rate : 47 b/s
Count of elements : 869
Stream size : 34.2 KiB (0%)
Title : English-SRT
Language : English
Default : Yes
Forced : No

Text #2
ID : 11
ID in the original source medium : 4768 (0x12A0)
Format : PGS
Muxing mode : zlib
Codec ID : S_HDMV/PGS
Codec ID/Info : Picture based subtitle format used on BDs/HD-DVDs
Duration : 1 h 41 min
Bit rate : 29.2 kb/s
Count of elements : 1954
Stream size : 21.2 MiB (0%)
Title : English-SDH-PGS
Language : English
Default : No
Forced : No
Original source medium : Blu-ray

Text #3
ID : 12
ID in the original source medium : 4769 (0x12A1)
Format : PGS
Muxing mode : zlib
Codec ID : S_HDMV/PGS
Codec ID/Info : Picture based subtitle format used on BDs/HD-DVDs
Duration : 1 h 38 min
Bit rate : 27.8 kb/s
Count of elements : 1744
Stream size : 19.5 MiB (0%)
Title : English-PGS
Language : English
Default : No
Forced : No
Original source medium : Blu-ray

Text #4
ID : 13
ID in the original source medium : 4770 (0x12A2)
Format : PGS
Muxing mode : zlib
Codec ID : S_HDMV/PGS
Codec ID/Info : Picture based subtitle format used on BDs/HD-DVDs
Duration : 1 h 41 min
Bit rate : 29.2 kb/s
Count of elements : 1954
Stream size : 21.2 MiB (0%)
Title : English-SDH-PGS
Language : English
Default : No
Forced : No
Original source medium : Blu-ray

Text #5
ID : 14
ID in the original source medium : 4771 (0x12A3)
Format : PGS
Muxing mode : zlib
Codec ID : S_HDMV/PGS
Codec ID/Info : Picture based subtitle format used on BDs/HD-DVDs
Duration : 1 h 38 min
Bit rate : 27.8 kb/s
Count of elements : 1744
Stream size : 19.5 MiB (0%)
Title : English-PGS
Language : English
Default : No
Forced : No
Original source medium : Blu-ray

Text #6
ID : 15
ID in the original source medium : 4772 (0x12A4)
Format : PGS
Muxing mode : zlib
Codec ID : S_HDMV/PGS
Codec ID/Info : Picture based subtitle format used on BDs/HD-DVDs
Duration : 1 h 42 min
Bit rate : 12.5 kb/s
Count of elements : 1325
Stream size : 9.15 MiB (0%)
Title : Arabic-PGS
Language : Arabic
Default : No
Forced : No
Original source medium : Blu-ray

Text #7
ID : 16
ID in the original source medium : 4773 (0x12A5)
Format : PGS
Muxing mode : zlib
Codec ID : S_HDMV/PGS
Codec ID/Info : Picture based subtitle format used on BDs/HD-DVDs
Duration : 1 h 42 min
Bit rate : 20.3 kb/s
Count of elements : 1431
Stream size : 14.8 MiB (0%)
Title : Chinese-PGS
Language : Chinese
Default : No
Forced : No
Original source medium : Blu-ray

Text #8
ID : 17
ID in the original source medium : 4774 (0x12A6)
Format : PGS
Muxing mode : zlib
Codec ID : S_HDMV/PGS
Codec ID/Info : Picture based subtitle format used on BDs/HD-DVDs
Duration : 1 h 42 min
Bit rate : 21.4 kb/s
Count of elements : 1432
Stream size : 15.7 MiB (0%)
Title : Croatian-PGS
Language : Croatian
Default : No
Forced : No
Original source medium : Blu-ray

Text #9
ID : 18
ID in the original source medium : 4775 (0x12A7)
Format : PGS
Muxing mode : zlib
Codec ID : S_HDMV/PGS
Codec ID/Info : Picture based subtitle format used on BDs/HD-DVDs
Duration : 1 h 42 min
Bit rate : 20.2 kb/s
Count of elements : 1394
Stream size : 14.8 MiB (0%)
Title : Czech-PGS
Language : Czech
Default : No
Forced : No
Original source medium : Blu-ray

Text #10
ID : 19
ID in the original source medium : 4776 (0x12A8)
Format : PGS
Muxing mode : zlib
Codec ID : S_HDMV/PGS
Codec ID/Info : Picture based subtitle format used on BDs/HD-DVDs
Duration : 1 h 45 min
Bit rate : 19.7 kb/s
Count of elements : 1267
Stream size : 14.9 MiB (0%)
Title : Danish-PGS
Language : Danish
Default : No
Forced : No
Original source medium : Blu-ray

Text #11
ID : 20
ID in the original source medium : 4777 (0x12A9)
Format : PGS
Muxing mode : zlib
Codec ID : S_HDMV/PGS
Codec ID/Info : Picture based subtitle format used on BDs/HD-DVDs
Duration : 1 h 42 min
Bit rate : 21.2 kb/s
Count of elements : 1252
Stream size : 15.5 MiB (0%)
Title : Dutch-PGS
Language : Dutch
Default : No
Forced : No
Original source medium : Blu-ray

Text #12
ID : 21
ID in the original source medium : 4778 (0x12AA)
Format : PGS
Muxing mode : zlib
Codec ID : S_HDMV/PGS
Codec ID/Info : Picture based subtitle format used on BDs/HD-DVDs
Duration : 1 h 42 min
Bit rate : 21.1 kb/s
Count of elements : 1271
Stream size : 15.5 MiB (0%)
Title : Finnish-pgs
Language : Finnish
Default : No
Forced : No
Original source medium : Blu-ray

Text #13
ID : 22
ID in the original source medium : 4779 (0x12AB)
Format : PGS
Muxing mode : zlib
Codec ID : S_HDMV/PGS
Codec ID/Info : Picture based subtitle format used on BDs/HD-DVDs
Duration : 1 h 45 min
Bit rate : 19.8 kb/s
Count of elements : 1262
Stream size : 15.0 MiB (0%)
Title : French-PGS
Language : French
Default : No
Forced : No
Original source medium : Blu-ray

Text #14
ID : 23
ID in the original source medium : 4779 (0x12AB)
Format : PGS
Muxing mode : zlib
Codec ID : S_HDMV/PGS
Codec ID/Info : Picture based subtitle format used on BDs/HD-DVDs
Duration : 1 h 18 min
Bit rate : 313 b/s
Count of elements : 24
Stream size : 180 KiB (0%)
Title : French-PGS
Language : French
Default : No
Forced : No
Original source medium : Blu-ray

Text #15
ID : 24
ID in the original source medium : 4780 (0x12AC)
Format : PGS
Muxing mode : zlib
Codec ID : S_HDMV/PGS
Codec ID/Info : Picture based subtitle format used on BDs/HD-DVDs
Duration : 1 h 42 min
Bit rate : 23.0 kb/s
Count of elements : 1494
Stream size : 16.8 MiB (0%)
Title : German-PGS
Language : German
Default : No
Forced : No
Original source medium : Blu-ray

Text #16
ID : 25
ID in the original source medium : 4781 (0x12AD)
Format : PGS
Muxing mode : zlib
Codec ID : S_HDMV/PGS
Codec ID/Info : Picture based subtitle format used on BDs/HD-DVDs
Duration : 1 h 46 min
Bit rate : 22.4 kb/s
Count of elements : 1756
Stream size : 17.0 MiB (0%)
Title : Greek-PGS
Language : Greek
Default : No
Forced : No
Original source medium : Blu-ray

Text #17
ID : 26
ID in the original source medium : 4782 (0x12AE)
Format : PGS
Muxing mode : zlib
Codec ID : S_HDMV/PGS
Codec ID/Info : Picture based subtitle format used on BDs/HD-DVDs
Duration : 1 h 42 min
Bit rate : 18.2 kb/s
Count of elements : 1746
Stream size : 13.3 MiB (0%)
Title : Hebrew-PGS
Language : Hebrew
Default : No
Forced : No
Original source medium : Blu-ray

Text #18
ID : 27
ID in the original source medium : 4783 (0x12AF)
Format : PGS
Muxing mode : zlib
Codec ID : S_HDMV/PGS
Codec ID/Info : Picture based subtitle format used on BDs/HD-DVDs
Duration : 1 h 42 min
Bit rate : 21.0 kb/s
Count of elements : 1534
Stream size : 15.3 MiB (0%)
Title : Hungarian-PGS
Language : Hungarian
Default : No
Forced : No
Original source medium : Blu-ray

Text #19
ID : 28
ID in the original source medium : 4784 (0x12B0)
Format : PGS
Muxing mode : zlib
Codec ID : S_HDMV/PGS
Codec ID/Info : Picture based subtitle format used on BDs/HD-DVDs
Duration : 1 h 42 min
Bit rate : 23.2 kb/s
Count of elements : 1786
Stream size : 17.0 MiB (0%)
Title : Italian-PGS
Language : Italian
Default : No
Forced : No
Original source medium : Blu-ray

Text #20
ID : 29
ID in the original source medium : 4785 (0x12B1)
Format : PGS
Muxing mode : zlib
Codec ID : S_HDMV/PGS
Codec ID/Info : Picture based subtitle format used on BDs/HD-DVDs
Duration : 1 h 42 min
Bit rate : 16.6 kb/s
Count of elements : 1806
Stream size : 12.1 MiB (0%)
Title : Japanese-PGS
Language : Japanese
Default : No
Forced : No
Original source medium : Blu-ray

Text #21
ID : 30
ID in the original source medium : 4786 (0x12B2)
Format : PGS
Muxing mode : zlib
Codec ID : S_HDMV/PGS
Codec ID/Info : Picture based subtitle format used on BDs/HD-DVDs
Duration : 1 h 42 min
Bit rate : 19.9 kb/s
Count of elements : 1900
Stream size : 14.5 MiB (0%)
Title : Korean-PGS
Language : Korean
Default : No
Forced : No
Original source medium : Blu-ray

Text #22
ID : 31
ID in the original source medium : 4787 (0x12B3)
Format : PGS
Muxing mode : zlib
Codec ID : S_HDMV/PGS
Codec ID/Info : Picture based subtitle format used on BDs/HD-DVDs
Duration : 1 h 45 min
Bit rate : 19.7 kb/s
Count of elements : 1248
Stream size : 14.9 MiB (0%)
Title : Norwegian-PGS
Language : Norwegian
Default : No
Forced : No
Original source medium : Blu-ray

Text #23
ID : 32
ID in the original source medium : 4788 (0x12B4)
Format : PGS
Muxing mode : zlib
Codec ID : S_HDMV/PGS
Codec ID/Info : Picture based subtitle format used on BDs/HD-DVDs
Duration : 1 h 42 min
Bit rate : 22.1 kb/s
Count of elements : 1402
Stream size : 16.2 MiB (0%)
Title : Polish-PGS
Language : Polish
Default : No
Forced : No
Original source medium : Blu-ray

Text #24
ID : 33
ID in the original source medium : 4789 (0x12B5)
Format : PGS
Muxing mode : zlib
Codec ID : S_HDMV/PGS
Codec ID/Info : Picture based subtitle format used on BDs/HD-DVDs
Duration : 1 h 42 min
Bit rate : 23.9 kb/s
Count of elements : 1662
Stream size : 17.5 MiB (0%)
Title : Portuguese-PGS
Language : Portuguese
Default : No
Forced : No
Original source medium : Blu-ray

Text #25
ID : 34
ID in the original source medium : 4790 (0x12B6)
Format : PGS
Muxing mode : zlib
Codec ID : S_HDMV/PGS
Codec ID/Info : Picture based subtitle format used on BDs/HD-DVDs
Duration : 1 h 45 min
Bit rate : 23.7 kb/s
Count of elements : 1756
Stream size : 18.0 MiB (0%)
Title : Portuguese-PGS
Language : Portuguese
Default : No
Forced : No
Original source medium : Blu-ray

Text #26
ID : 35
ID in the original source medium : 4791 (0x12B7)
Format : PGS
Muxing mode : zlib
Codec ID : S_HDMV/PGS
Codec ID/Info : Picture based subtitle format used on BDs/HD-DVDs
Duration : 1 h 45 min
Bit rate : 22.3 kb/s
Count of elements : 1770
Stream size : 16.9 MiB (0%)
Title : Romanian-PGS
Language : Romanian
Default : No
Forced : No
Original source medium : Blu-ray

Text #27
ID : 36
ID in the original source medium : 4792 (0x12B8)
Format : PGS
Muxing mode : zlib
Codec ID : S_HDMV/PGS
Codec ID/Info : Picture based subtitle format used on BDs/HD-DVDs
Duration : 1 h 45 min
Bit rate : 20.4 kb/s
Count of elements : 1405
Stream size : 15.4 MiB (0%)
Title : Slovak-PGS
Language : Slovak
Default : No
Forced : No
Original source medium : Blu-ray

Text #28
ID : 37
ID in the original source medium : 4793 (0x12B9)
Format : PGS
Muxing mode : zlib
Codec ID : S_HDMV/PGS
Codec ID/Info : Picture based subtitle format used on BDs/HD-DVDs
Duration : 1 h 45 min
Bit rate : 19.2 kb/s
Count of elements : 1402
Stream size : 14.6 MiB (0%)
Title : Slovenian-PGS
Language : Slovenian
Default : No
Forced : No
Original source medium : Blu-ray

Text #29
ID : 38
ID in the original source medium : 4794 (0x12BA)
Format : PGS
Muxing mode : zlib
Codec ID : S_HDMV/PGS
Codec ID/Info : Picture based subtitle format used on BDs/HD-DVDs
Duration : 1 h 42 min
Bit rate : 23.5 kb/s
Count of elements : 1426
Stream size : 17.2 MiB (0%)
Title : Spanish-PGS
Language : Spanish
Default : No
Forced : No
Original source medium : Blu-ray

Text #30
ID : 39
ID in the original source medium : 4794 (0x12BA)
Format : PGS
Muxing mode : zlib
Codec ID : S_HDMV/PGS
Codec ID/Info : Picture based subtitle format used on BDs/HD-DVDs
Duration : 1 h 39 min
Bit rate : 334 b/s
Count of elements : 34
Stream size : 243 KiB (0%)
Title : Spanish-PGS
Language : Spanish
Default : No
Forced : No
Original source medium : Blu-ray

Text #31
ID : 40
ID in the original source medium : 4795 (0x12BB)
Format : PGS
Muxing mode : zlib
Codec ID : S_HDMV/PGS
Codec ID/Info : Picture based subtitle format used on BDs/HD-DVDs
Duration : 1 h 42 min
Bit rate : 26.9 kb/s
Count of elements : 1828
Stream size : 19.6 MiB (0%)
Title : Spanish-PGS
Language : Spanish
Default : No
Forced : No
Original source medium : Blu-ray

Text #32
ID : 41
ID in the original source medium : 4796 (0x12BC)
Format : PGS
Muxing mode : zlib
Codec ID : S_HDMV/PGS
Codec ID/Info : Picture based subtitle format used on BDs/HD-DVDs
Duration : 1 h 42 min
Bit rate : 17.5 kb/s
Count of elements : 1238
Stream size : 12.8 MiB (0%)
Title : Swedish-PGS
Language : Swedish
Default : No
Forced : No
Original source medium : Blu-ray

Text #33
ID : 42
ID in the original source medium : 4797 (0x12BD)
Format : PGS
Muxing mode : zlib
Codec ID : S_HDMV/PGS
Codec ID/Info : Picture based subtitle format used on BDs/HD-DVDs
Duration : 1 h 42 min
Bit rate : 22.8 kb/s
Count of elements : 1452
Stream size : 16.7 MiB (0%)
Title : Thai-PGS
Language : Thai
Default : No
Forced : No
Original source medium : Blu-ray

Text #34
ID : 43
ID in the original source medium : 4798 (0x12BE)
Format : PGS
Muxing mode : zlib
Codec ID : S_HDMV/PGS
Codec ID/Info : Picture based subtitle format used on BDs/HD-DVDs
Duration : 1 h 42 min
Bit rate : 22.9 kb/s
Count of elements : 1786
Stream size : 16.7 MiB (0%)
Title : Turkish-PGS
Language : Turkish
Default : No
Forced : No
Original source medium : Blu-ray

Menu
00:00:00.000 : en:Chapter 01
00:07:39.083 : en:Chapter 02
00:10:58.491 : en:Chapter 03
00:18:49.878 : en:Chapter 04
00:23:40.168 : en:Chapter 05
00:31:38.730 : en:Chapter 06
00:37:20.947 : en:Chapter 07
00:43:47.541 : en:Chapter 08
00:48:38.874 : en:Chapter 09
00:56:10.575 : en:Chapter 10
01:03:50.409 : en:Chapter 11
01:08:56.257 : en:Chapter 12
01:17:00.949 : en:Chapter 13
01:22:14.012 : en:Chapter 14
01:28:35.184 : en:Chapter 15
01:34:10.436 : en:Chapter 16

本帖子中包含更多资源

您需要 登录 才可以下载或查看,没有帐号?立即注册

x
回复

使用道具 举报

0

主题

55

帖子

458

积分

VIP永久

Rank: 12Rank: 12Rank: 12

积分
458
发表于 2021-3-14 18:48:06 | 显示全部楼层
感谢楼主分享
回复

使用道具 举报

0

主题

1123

帖子

8440

积分

VIP永久

Rank: 12Rank: 12Rank: 12

积分
8440
发表于 2021-3-14 20:42:19 | 显示全部楼层
感谢楼主分享!!!
回复

使用道具 举报

0

主题

235

帖子

2839

积分

金牌会员

Rank: 6Rank: 6

积分
2839
发表于 2021-3-14 21:02:58 | 显示全部楼层
感谢楼主分享!!!
回复

使用道具 举报

0

主题

523

帖子

2570

积分

金牌会员

Rank: 6Rank: 6

积分
2570
发表于 2021-3-14 22:36:59 | 显示全部楼层
感谢楼主分享!
回复

使用道具 举报

0

主题

287

帖子

1359

积分

金牌会员

Rank: 6Rank: 6

积分
1359
发表于 2021-3-15 07:31:39 | 显示全部楼层
片子不错,但4k似乎没啥必要
回复

使用道具 举报

0

主题

126

帖子

697

积分

高级会员

Rank: 4

积分
697
发表于 2021-3-15 08:52:52 | 显示全部楼层
谢谢楼主分享
回复

使用道具 举报

0

主题

637

帖子

3347

积分

论坛元老

Rank: 8Rank: 8

积分
3347
发表于 2021-3-15 09:49:25 | 显示全部楼层
谢楼主分享
回复

使用道具 举报

0

主题

409

帖子

2764

积分

金牌会员

Rank: 6Rank: 6

积分
2764
发表于 2021-3-15 12:02:52 | 显示全部楼层
这个片子很不错, 谢谢分享。
回复

使用道具 举报

0

主题

409

帖子

2764

积分

金牌会员

Rank: 6Rank: 6

积分
2764
发表于 2021-3-15 12:05:51 | 显示全部楼层
这个为啥还要特点用户才能下载???
回复

使用道具 举报

您需要登录后才可以回帖 登录 | 立即注册

本版积分规则

QQ|Archiver|手机版|小黑屋|原盘天堂 好多盘 点击这里给我发消息

GMT+8, 2021-4-16 00:28 , Processed in 0.072328 second(s), 24 queries .

Powered by Discuz! X3.4

Copyright © 2001-2020, Tencent Cloud.

快速回复 返回顶部 返回列表