请选择 进入手机版 | 继续访问电脑版
本站原来Q群已取消,请原Q群会员和其他未入群会员加原盘天堂新官方QQ群713428235【盘盘多】,验证信息填写您在论坛的会员名,不填会员名的无法入群哈,进群后修改您的群名片名字为您在论坛的会员名,请务必修改,否则群成员多了不知道您是哪个会员。

原盘天堂

 找回密码
 立即注册
查看: 61|回复: 6

2d蓝光原盘remux voices 英语原版 voices.2020.1080p.bluray.remux.avc.dts-hd.ma.5.1[18.45 GB]

[复制链接]

5672

主题

6261

帖子

131万

积分

管理员

Rank: 18Rank: 18Rank: 18Rank: 18Rank: 18

积分
1318026
发表于 6 天前 | 显示全部楼层 |阅读模式




Voices (2020)

导演: Nathaniel Nuon
编剧: Nathaniel Nuon / Daniel Hathcock / Javan Garza
主演: 阿什丽·贝尔 / 乔丹·莱德 / 莱斯利·伊斯特布鲁克
类型: 剧情 / 惊悚 / 恐怖
制片国家/地区: 美国
语言: 英语
上映日期: 2020-10-28(美国)
片长: 108分钟

剧情简介 · · · · · ·
  Don't believe everything you hear.

      别相信你听到的一切。

Video
ID : 1
ID in the original source medium : 4113 (0x1011)
Format : AVC
Format/Info : Advanced Video Codec
Format profile : [email protected]
Format settings : CABAC / 4 Ref Frames
Format settings, CABAC : Yes
Format settings, Reference frames : 4 frames
Codec ID : V_MPEG4/ISO/AVC
Duration : 1 h 48 min
Bit rate mode : Variable
Bit rate : 23.0 Mb/s
Maximum bit rate : 35.0 Mb/s
Width : 1 920 pixels
Height : 1 080 pixels
Display aspect ratio : 16:9
Frame rate mode : Constant
Frame rate : 23.976 (24000/1001) FPS
Standard : Component
Color space : YUV
Chroma subsampling : 4:2:0
Bit depth : 8 bits
Scan type : Progressive
Bits/(Pixel*Frame) : 0.463
Stream size : 17.3 GiB (94%)
Writing library : x264 core 155
Encoding settings : cabac=1 / ref=4 / deblock=1:0:0 / analyse=0x3:0x133 / me=umh / subme=9 / psy=1 / psy_rd=1.00:0.00 / mixed_ref=1 / me_range=16 / chroma_me=1 / trellis=2 / 8x8dct=1 / cqm=1 / deadzone=21,11 / fast_pskip=1 / chroma_qp_offset=-2 / threads=24 / lookahead_threads=2 / sliced_threads=0 / slices=4 / nr=0 / decimate=1 / interlaced=0 / minigop=1 / stitchable=1 / constrained_intra=0 / bframes=3 / b_pyramid=0 / b_adapt=2 / b_bias=0 / direct=3 / weightb=1 / open_gop=1 / weightp=1 / keyint=24 / keyint_min=1 / scenecut=40 / intra_refresh=0 / rc_lookahead=24 / rc=2pass / mbtree=1 / bitrate=23000 / ratetol=1.0 / qcomp=0.60 / qpmin=3 / qpmax=69 / qpstep=4 / cplxblur=20.0 / qblur=0.5 / vbv_maxrate=35000 / vbv_bufsize=30000 / nal_hrd=vbr / filler=0 / ip_ratio=1.40 / aq=1:1.00
Language : English
Default : No
Forced : No
Color range : Limited
Color primaries : BT.709
Transfer characteristics : BT.709
Matrix coefficients : BT.709
Original source medium : Blu-ray

Audio
ID : 2
ID in the original source medium : 4353 (0x1101)
Format : DTS XLL
Format/Info : Digital Theater Systems
Commercial name : DTS-HD Master Audio
Codec ID : A_DTS
Duration : 1 h 48 min
Bit rate mode : Variable
Bit rate : 1 470 kb/s
Channel(s) : 6 channels
Channel layout : C L R Ls Rs LFE
Sampling rate : 48.0 kHz
Frame rate : 93.750 FPS (512 SPF)
Bit depth : 16 bits
Compression mode : Lossless
Stream size : 1.11 GiB (6%)
Title : DTS-HD MA 5.1
Language : English
Default : Yes
Forced : No
Original source medium : Blu-ray

Menu
00:00:00.000 : de:Chapter 01
00:10:12.486 : de:Chapter 02
00:20:41.573 : de:Chapter 03
00:29:58.087 : de:Chapter 04
00:39:48.803 : de:Chapter 05
00:47:38.063 : de:Chapter 06
01:04:31.993 : de:Chapter 07
01:12:15.372 : de:Chapter 08
01:21:15.370 : de:Chapter 09
01:32:31.295 : de:Chapter 10

本帖子中包含更多资源

您需要 登录 才可以下载或查看,没有帐号?立即注册

x
回复

使用道具 举报

0

主题

1032

帖子

7831

积分

VIP永久

Rank: 12Rank: 12Rank: 12

积分
7831
发表于 6 天前 | 显示全部楼层
谢谢楼主分享!!!!!
回复

使用道具 举报

0

主题

303

帖子

1702

积分

金牌会员

Rank: 6Rank: 6

积分
1702
发表于 6 天前 | 显示全部楼层
谢楼主分享
回复

使用道具 举报

0

主题

378

帖子

2465

积分

金牌会员

Rank: 6Rank: 6

积分
2465
发表于 6 天前 | 显示全部楼层
谢谢分享谢谢分享
回复

使用道具 举报

0

主题

378

帖子

2465

积分

金牌会员

Rank: 6Rank: 6

积分
2465
发表于 6 天前 | 显示全部楼层
谢谢分享谢谢分享
回复

使用道具 举报

0

主题

246

帖子

1146

积分

金牌会员

Rank: 6Rank: 6

积分
1146
发表于 5 天前 | 显示全部楼层
谢谢楼主分享
回复

使用道具 举报

0

主题

22

帖子

163

积分

注册会员

Rank: 2

积分
163
发表于 前天 20:37 | 显示全部楼层
感谢分享,楼主辛苦了。
回复

使用道具 举报

您需要登录后才可以回帖 登录 | 立即注册

本版积分规则

QQ|Archiver|手机版|小黑屋|原盘天堂 盘盘多 点击这里给我发消息

GMT+8, 2021-2-28 20:51 , Processed in 0.064372 second(s), 25 queries .

Powered by Discuz! X3.4

Copyright © 2001-2020, Tencent Cloud.

快速回复 返回顶部 返回列表