请选择 进入手机版 | 继续访问电脑版
本站原来Q群已取消,请原Q群会员和其他未入群会员加原盘天堂新官方QQ群713428235【盘盘多】,验证信息填写您在论坛的会员名,不填会员名的无法入群哈,进群后修改您的群名片名字为您在论坛的会员名,请务必修改,否则群成员多了不知道您是哪个会员。

原盘天堂

 找回密码
 立即注册
查看: 53|回复: 4

2d蓝光原盘bdmv 要敌 英语原版 archenemy.2020.1080p.bluray.avc.dts-hd.ma.5.1[18.47 GB]

[复制链接]

5672

主题

6261

帖子

131万

积分

管理员

Rank: 18Rank: 18Rank: 18Rank: 18Rank: 18

积分
1317976
发表于 6 天前 | 显示全部楼层 |阅读模式








要敌 Archenemy (2020)

导演: 亚当·埃及·摩提莫
编剧: 亚当·埃及·摩提莫 / Lucas Passmore
主演: 乔·曼根尼罗 / 格伦·豪尔顿 / 约瑟夫·D·雷特曼 / 麦克·勃兰特 / 基兰·加拉赫 / 更多...
类型: 动作 / 冒险
制片国家/地区: 美国
上映日期: 2020-12-11(美国)

豆瓣评分
4.5
79人评价
5星 6.1%
4星 1.5%
3星 30.3%
2星 34.8%
1星 27.3%

剧情简介 · · · · · ·
  乔·曼根尼罗将主演动作冒险影片[要敌](Archenemy,暂译),Adam Egypt Mortimer([丹尼尔不是真的])自编自导。影片故事讲述麦克斯·费斯特(Max Fist)自称自己是来自另一个维度的超级英雄,他穿越时空跌落到了地球上,在地球上的他无法施展超能力。没人相信他的故事,只有一个叫“仓鼠”的少年相信他的话。他们一起走上街头,消灭当地的毒品集团及名为“经理”的犯罪头目。

DISC INFO:

Disc Title:     Archenemy.2020.1080p.BluRay.AVC.DTS-HD.MA.5.1-FGT
Disc Size:      19,831,955,233 bytes
Protection:     AACS
BDInfo:         0.7.5.9 (compatible layout created by DVDFab 12.0.1.8)

PLAYLIST REPORT:

Name:                   00020.MPLS  
Length:                 1:30:16.411 (h:m:s.ms)
Size:                   17,760,866,304 bytes
Total Bitrate:          26.23 Mbps

VIDEO:

Codec                   Bitrate             Description     
-----                   -------             -----------     
MPEG-4 AVC Video        20988 kbps          1080p / 23.976 fps / 16:9 / High Profile 4.1

AUDIO:

Codec                           Language        Bitrate         Description     
-----                           --------        -------         -----------     
DTS-HD Master Audio             English         3787 kbps       5.1 / 48 kHz / 3787 kbps / 24-bit (DTS Core: 5.1 / 48 kHz / 1509 kbps / 24-bit)

SUBTITLES:

Codec                           Language        Bitrate         Description     
-----                           --------        -------         -----------     
Presentation Graphics           English         21.153 kbps                     
Presentation Graphics           Spanish         18.972 kbps                     
Presentation Graphics           French          19.123 kbps         

Video
ID : 1
ID in the original source medium : 4113 (0x1011)
Format : AVC
Format/Info : Advanced Video Codec
Format profile : [email protected]
Format settings : CABAC / 4 Ref Frames
Format settings, CABAC : Yes
Format settings, Reference frames : 4 frames
Codec ID : V_MPEG4/ISO/AVC
Duration : 1 h 30 min
Bit rate mode : Variable
Bit rate : 20.8 Mb/s
Maximum bit rate : 36.0 Mb/s
Width : 1 920 pixels
Height : 1 080 pixels
Display aspect ratio : 16:9
Frame rate mode : Constant
Frame rate : 23.976 (24000/1001) FPS
Color space : YUV
Chroma subsampling : 4:2:0
Bit depth : 8 bits
Scan type : Progressive
Bits/(Pixel*Frame) : 0.419
Stream size : 13.1 GiB (85%)
Language : English
Default : No
Forced : No
Original source medium : Blu-ray

Audio
ID : 2
ID in the original source medium : 4352 (0x1100)
Format : DTS XLL
Format/Info : Digital Theater Systems
Commercial name : DTS-HD Master Audio
Codec ID : A_DTS
Duration : 1 h 30 min
Bit rate mode : Variable
Bit rate : 3 787 kb/s
Channel(s) : 6 channels
Channel layout : C L R Ls Rs LFE
Sampling rate : 48.0 kHz
Frame rate : 93.750 FPS (512 SPF)
Bit depth : 24 bits
Compression mode : Lossless
Stream size : 2.39 GiB (15%)
Title : DTS-HD MA 5.1
Language : English
Default : Yes
Forced : No
Original source medium : Blu-ray

Text #1
ID : 3
Format : UTF-8
Codec ID : S_TEXT/UTF8
Codec ID/Info : UTF-8 Plain Text
Duration : 1 h 22 min
Bit rate : 50 b/s
Count of elements : 1014
Stream size : 30.4 KiB (0%)
Title : English-SRT
Language : English
Default : Yes
Forced : No

Text #2
ID : 4
ID in the original source medium : 4608 (0x1200)
Format : PGS
Muxing mode : zlib
Codec ID : S_HDMV/PGS
Codec ID/Info : Picture based subtitle format used on BDs/HD-DVDs
Duration : 1 h 22 min
Bit rate : 23.2 kb/s
Count of elements : 2276
Stream size : 13.7 MiB (0%)
Title : English-PGS
Language : English
Default : No
Forced : No
Original source medium : Blu-ray

Text #3
ID : 5
ID in the original source medium : 4609 (0x1201)
Format : PGS
Muxing mode : zlib
Codec ID : S_HDMV/PGS
Codec ID/Info : Picture based subtitle format used on BDs/HD-DVDs
Duration : 1 h 22 min
Bit rate : 20.8 kb/s
Count of elements : 2092
Stream size : 12.2 MiB (0%)
Title : Spanish-PGS
Language : Spanish
Default : No
Forced : No
Original source medium : Blu-ray

Text #4
ID : 6
ID in the original source medium : 4610 (0x1202)
Format : PGS
Muxing mode : zlib
Codec ID : S_HDMV/PGS
Codec ID/Info : Picture based subtitle format used on BDs/HD-DVDs
Duration : 1 h 22 min
Bit rate : 21.0 kb/s
Count of elements : 2052
Stream size : 12.3 MiB (0%)
Title : French-PGS
Language : French
Default : No
Forced : No
Original source medium : Blu-ray

Menu
00:00:00.000 : en:Chapter 01
00:05:50.099 : en:Chapter 02
00:18:24.144 : en:Chapter 03
00:33:48.401 : en:Chapter 04
00:50:08.922 : en:Chapter 05
01:04:28.990 : en:Chapter 06
01:10:16.962 : en:Chapter 07
01:23:27.669 : en:Chapter 08

本帖子中包含更多资源

您需要 登录 才可以下载或查看,没有帐号?立即注册

x
回复

使用道具 举报

0

主题

63

帖子

362

积分

中级会员

Rank: 3Rank: 3

积分
362
发表于 6 天前 | 显示全部楼层

非常经典的大片!值得收藏,谢谢分享!!!
回复

使用道具 举报

0

主题

4

帖子

23

积分

新手上路

Rank: 1

积分
23
发表于 6 天前 | 显示全部楼层
我在想為什麼店主這麼着緊我購買這個290 多元的不知名軟件與否,是否裏面藏着木馬程式,所得的利潤遠比年費為多?為什麼hao4k不要使用類似軟件?
回复

使用道具 举报

0

主题

50

帖子

367

积分

中级会员

Rank: 3Rank: 3

积分
367
发表于 5 天前 | 显示全部楼层

感谢楼主分享高清影片
回复

使用道具 举报

0

主题

246

帖子

1146

积分

金牌会员

Rank: 6Rank: 6

积分
1146
发表于 5 天前 | 显示全部楼层
谢谢楼主分享
回复

使用道具 举报

您需要登录后才可以回帖 登录 | 立即注册

本版积分规则

QQ|Archiver|手机版|小黑屋|原盘天堂 盘盘多 点击这里给我发消息

GMT+8, 2021-2-28 19:59 , Processed in 0.054353 second(s), 25 queries .

Powered by Discuz! X3.4

Copyright © 2001-2020, Tencent Cloud.

快速回复 返回顶部 返回列表