请选择 进入手机版 | 继续访问电脑版
本站原来Q群已取消,请原Q群会员和其他未入群会员加原盘天堂新官方QQ群713428235【盘盘多】,验证信息填写您在论坛的会员名,不填会员名的无法入群哈,进群后修改您的群名片名字为您在论坛的会员名,请务必修改,否则群成员多了不知道您是哪个会员。

原盘天堂

 找回密码
 立即注册
查看: 55|回复: 5

4k蓝光原盘bdmv 财色惊魂 英语原版the.killers.1964.2160p.bluray.hevc.dts-hd.ma.2.0[58.67 GB]

[复制链接]

5672

主题

6261

帖子

131万

积分

管理员

Rank: 18Rank: 18Rank: 18Rank: 18Rank: 18

积分
1318024
发表于 6 天前 | 显示全部楼层 |阅读模式








财色惊魂 The Killers (1964)

导演: 唐·希格尔
编剧: 吉恩·L·库恩
主演: 李·马文 / 安吉·迪金森 / 约翰·卡萨维蒂 / 克鲁·古拉格 / 罗纳德·里根
类型: 剧情 / 悬疑 / 犯罪
制片国家/地区: 美国
语言: 英语
上映日期: 1964-07-07
片长: 93分钟
又名: 凶手 / Ernest Hemingway's The Killers

豆瓣评分
6.8
400人评价
5星 8.0%
4星 33.1%
3星 52.0%
2星 6.5%
1星 0.4%

剧情简介 · · · · · ·
  查理(李·马文 Lee Marvin 饰)和李(克鲁·古拉格 Clu Gulager 饰)是拿钱办事的职业杀手,某次,在了结掉了他们的目标强尼(约翰·卡索维茨 John Cassavetes 饰)后,他们对这桩简单的让人简直不敢相信的买卖产生了怀疑。在好奇心的趋势下,查理和李开始调查强尼的底细,得知他曾是一位小有名气的赛车手,却因为赛场上的一起事故而被迫结束了职业生涯。
  随着调查的不断深入,一个名为希拉(安吉·迪金森 Angie Dickinson 饰)的女人渐渐浮出了水面,希拉是黑帮老大布朗宁(罗纳德·里根 Ronald Reagan 饰)的情人,同时和被杀的强尼也有着千丝万缕的关联。渐渐地,查理和李发现他们陷入了一个深深的漩涡之中无法自拔。

DISC INFO:

Disc Title:     The.Killers.1964.COMPLETE.UHD.BLURAY-UNTOUCHED
Disc Size:      62,997,774,040 bytes
Protection:     AACS2
Extras:         Ultra HD
BDInfo:         0.7.5.9 (compatible layout created by DVDFab 12.0.1.8)

PLAYLIST REPORT:

Name:                   00004.MPLS  
Length:                 1:34:42.677 (h:m:s.ms)
Size:                   62,004,350,976 bytes
Total Bitrate:          87.29 Mbps

VIDEO:

Codec                   Bitrate             Description     
-----                   -------             -----------     
MPEG-H HEVC Video       81439 kbps          2160p / 23.976 fps / 16:9 / Main 10 @ Level 5.1 @ High / 4:2:0 / 10 bits / 1000nits / HDR10 / BT.2020

AUDIO:

Codec                           Language        Bitrate         Description     
-----                           --------        -------         -----------     
DTS-HD Master Audio             German          664 kbps        2.0 / 48 kHz / 664 kbps / 16-bit (DTS Core: 2.0 / 48 kHz / 384 kbps / 16-bit)
DTS-HD Master Audio             English         1175 kbps       2.0 / 48 kHz / 1175 kbps / 24-bit (DTS Core: 2.0 / 48 kHz / 384 kbps / 24-bit)

SUBTITLES:

Codec                           Language        Bitrate         Description     
-----                           --------        -------         -----------     
Presentation Graphics           German          38.346 kbps                     
Presentation Graphics           English         33.664 kbps  

Video
ID : 1
ID in the original source medium : 4113 (0x1011)
Format : HEVC
Format/Info : High Efficiency Video Coding
Format profile : Main [email protected]@High
HDR format : SMPTE ST 2086, HDR10 compatible
Codec ID : V_MPEGH/ISO/HEVC
Duration : 1 h 34 min
Bit rate : 81.4 Mb/s
Width : 3 840 pixels
Height : 2 160 pixels
Display aspect ratio : 16:9
Frame rate mode : Constant
Frame rate : 23.976 (24000/1001) FPS
Color space : YUV
Chroma subsampling : 4:2:0 (Type 2)
Bit depth : 10 bits
Bits/(Pixel*Frame) : 0.410
Stream size : 53.9 GiB (97%)
Language : English
Default : No
Forced : No
Color range : Limited
Color primaries : BT.2020
Transfer characteristics : PQ
Matrix coefficients : BT.2020 non-constant
Mastering display color primaries : Display P3
Mastering display luminance : min: 0.0001 cd/m2, max: 1000 cd/m2
Maximum Content Light Level : 1000 cd/m2
Maximum Frame-Average Light Level : 400 cd/m2
Original source medium : Blu-ray

Audio #1
ID : 2
ID in the original source medium : 4353 (0x1101)
Format : DTS XLL
Format/Info : Digital Theater Systems
Commercial name : DTS-HD Master Audio
Codec ID : A_DTS
Duration : 1 h 34 min
Bit rate mode : Variable
Bit rate : 1 175 kb/s
Channel(s) : 2 channels
Channel layout : L R
Sampling rate : 48.0 kHz
Frame rate : 93.750 FPS (512 SPF)
Bit depth : 24 bits
Compression mode : Lossless
Stream size : 796 MiB (1%)
Title : DTS-HD MA 2.0
Language : English
Default : Yes
Forced : No
Original source medium : Blu-ray

Audio #2
ID : 3
Format : AC-3
Format/Info : Audio Coding 3
Commercial name : Dolby Digital
Codec ID : A_AC3
Duration : 1 h 34 min
Bit rate mode : Constant
Bit rate : 640 kb/s
Channel(s) : 2 channels
Channel layout : L R
Sampling rate : 48.0 kHz
Frame rate : 31.250 FPS (1536 SPF)
Compression mode : Lossy
Stream size : 434 MiB (1%)
Title : DD 2.0
Language : English
Service kind : Complete Main
Default : No
Forced : No

Audio #3
ID : 4
ID in the original source medium : 4352 (0x1100)
Format : DTS XLL
Format/Info : Digital Theater Systems
Commercial name : DTS-HD Master Audio
Codec ID : A_DTS
Duration : 1 h 34 min
Bit rate mode : Variable
Bit rate : 664 kb/s
Channel(s) : 2 channels
Channel layout : L R
Sampling rate : 48.0 kHz
Frame rate : 93.750 FPS (512 SPF)
Bit depth : 16 bits
Compression mode : Lossless
Stream size : 450 MiB (1%)
Title : DTS-HD MA 2.0
Language : German
Default : No
Forced : No
Original source medium : Blu-ray

Text #1
ID : 5
Format : UTF-8
Codec ID : S_TEXT/UTF8
Codec ID/Info : UTF-8 Plain Text
Duration : 1 h 31 min
Bit rate : 63 b/s
Count of elements : 1087
Stream size : 42.4 KiB (0%)
Title : English-SRT
Language : English
Default : Yes
Forced : No

Text #2
ID : 6
ID in the original source medium : 4769 (0x12A1)
Format : PGS
Muxing mode : zlib
Codec ID : S_HDMV/PGS
Codec ID/Info : Picture based subtitle format used on BDs/HD-DVDs
Duration : 1 h 31 min
Bit rate : 34.9 kb/s
Count of elements : 2178
Stream size : 22.8 MiB (0%)
Title : English-PGS
Language : English
Default : No
Forced : No
Original source medium : Blu-ray

Text #3
ID : 7
ID in the original source medium : 4768 (0x12A0)
Format : PGS
Muxing mode : zlib
Codec ID : S_HDMV/PGS
Codec ID/Info : Picture based subtitle format used on BDs/HD-DVDs
Duration : 1 h 31 min
Bit rate : 39.8 kb/s
Count of elements : 1827
Stream size : 26.0 MiB (0%)
Title : German-PGS
Language : German
Default : No
Forced : No
Original source medium : Blu-ray

Menu
00:00:00.000 : en:Chapter 01
00:01:25.460 : en:Chapter 02
00:06:03.154 : en:Chapter 03
00:09:09.757 : en:Chapter 04
00:14:07.596 : en:Chapter 05
00:20:10.167 : en:Chapter 06
00:22:32.893 : en:Chapter 07
00:28:41.845 : en:Chapter 08
00:38:42.903 : en:Chapter 09
00:45:33.397 : en:Chapter 10
00:54:49.911 : en:Chapter 11
01:03:00.568 : en:Chapter 12
01:10:25.471 : en:Chapter 13
01:17:12.085 : en:Chapter 14
01:25:37.549 : en:Chapter 15
01:34:01.135 : en:Chapter 16

本帖子中包含更多资源

您需要 登录 才可以下载或查看,没有帐号?立即注册

x
回复

使用道具 举报

0

主题

1032

帖子

7831

积分

VIP永久

Rank: 12Rank: 12Rank: 12

积分
7831
发表于 6 天前 | 显示全部楼层
谢谢楼主分享!!!!!
回复

使用道具 举报

0

主题

303

帖子

1702

积分

金牌会员

Rank: 6Rank: 6

积分
1702
发表于 6 天前 | 显示全部楼层
谢楼主分享
回复

使用道具 举报

0

主题

4

帖子

23

积分

新手上路

Rank: 1

积分
23
发表于 6 天前 | 显示全部楼层
我在想為什麼店主這麼着緊我購買這個290 多元的FDM名軟件與否,是否裏面藏着木馬程式,所得的利潤遠比年費為多?為什麼hao4k不要使用類似軟件?
回复

使用道具 举报

0

主题

50

帖子

367

积分

中级会员

Rank: 3Rank: 3

积分
367
发表于 5 天前 | 显示全部楼层

感谢楼主分享高清影片
回复

使用道具 举报

0

主题

246

帖子

1146

积分

金牌会员

Rank: 6Rank: 6

积分
1146
发表于 5 天前 | 显示全部楼层
谢谢楼主分享
回复

使用道具 举报

您需要登录后才可以回帖 登录 | 立即注册

本版积分规则

QQ|Archiver|手机版|小黑屋|原盘天堂 盘盘多 点击这里给我发消息

GMT+8, 2021-2-28 20:44 , Processed in 0.058198 second(s), 24 queries .

Powered by Discuz! X3.4

Copyright © 2001-2020, Tencent Cloud.

快速回复 返回顶部 返回列表