请选择 进入手机版 | 继续访问电脑版
本站原来Q群已取消,请原Q群会员和其他未入群会员加原盘天堂新官方QQ群713428235【盘盘多】,验证信息填写您在论坛的会员名,不填会员名的无法入群哈,进群后修改您的群名片名字为您在论坛的会员名,请务必修改,否则群成员多了不知道您是哪个会员。

原盘天堂

 找回密码
 立即注册
查看: 44|回复: 5

2d蓝光原盘bdmv 我过去常来这里 英语原版 i.used.to.go.here.2020.1080p.bluray.avc.dts-hd.ma.5.1[22.84 GB]

[复制链接]

5672

主题

6261

帖子

131万

积分

管理员

Rank: 18Rank: 18Rank: 18Rank: 18Rank: 18

积分
1317976
发表于 2021-2-20 16:37:27 | 显示全部楼层 |阅读模式






我过去常来这里 I Used to Go Here (2020)

导演: Kris Rey
编剧: Kris Rey
主演: 杰梅奈·克莱门特 / 吉莉安·雅各布斯 / 凯特·米库奇 / 汉娜·马克斯 / 乔玛·塔科内 / 更多...
类型: 喜剧
制片国家/地区: 美国
语言: 英语
上映日期: 2020-08-07(美国)
片长: 80分钟

剧情简介 · · · · · ·
  新小说问世后,35岁的作家凯特·康克林(Kill Conklin)(吉莲·雅各布斯(Gillian Jacobs))受导师和前教授(Jemaine Clement)邀请在母校演讲。


DISC INFO:

Disc Title:     I.Used.To.Go.Here.2020.COMPLETE.BLURAY-BDA
Disc Size:      24,520,638,319 bytes
Protection:     AACS
BDInfo:         0.7.5.9 (compatible layout created by DVDFab 12.0.1.8)

PLAYLIST REPORT:

Name:                   00000.MPLS  
Length:                 1:27:47.929 (h:m:s.ms)
Size:                   23,837,509,632 bytes
Total Bitrate:          36.20 Mbps

VIDEO:

Codec                   Bitrate             Description     
-----                   -------             -----------     
MPEG-4 AVC Video        30899 kbps          1080p / 23.976 fps / 16:9 / High Profile 4.1

AUDIO:

Codec                           Language        Bitrate         Description     
-----                           --------        -------         -----------     
DTS-HD Master Audio             English         3453 kbps       5.1 / 48 kHz / 3453 kbps / 24-bit (DTS Core: 5.1 / 48 kHz / 1509 kbps / 24-bit)

SUBTITLES:

Codec                           Language        Bitrate         Description     
-----                           --------        -------         -----------     
Presentation Graphics           English         38.068 kbps     

Video
ID : 1
ID in the original source medium : 4113 (0x1011)
Format : AVC
Format/Info : Advanced Video Codec
Format profile : [email protected]
Format settings : CABAC / 4 Ref Frames
Format settings, CABAC : Yes
Format settings, Reference frames : 4 frames
Codec ID : V_MPEG4/ISO/AVC
Duration : 1 h 27 min
Bit rate mode : Constant
Bit rate : 28.8 Mb/s
Nominal bit rate : 30.9 Mb/s
Width : 1 920 pixels
Height : 1 080 pixels
Display aspect ratio : 16:9
Frame rate mode : Constant
Frame rate : 23.976 (24000/1001) FPS
Color space : YUV
Chroma subsampling : 4:2:0
Bit depth : 8 bits
Scan type : Progressive
Bits/(Pixel*Frame) : 0.580
Stream size : 17.7 GiB (89%)
Language : English
Default : No
Forced : No
Color range : Limited
Color primaries : BT.709
Transfer characteristics : BT.709
Matrix coefficients : BT.709
Original source medium : Blu-ray

Audio
ID : 2
ID in the original source medium : 4352 (0x1100)
Format : DTS XLL
Format/Info : Digital Theater Systems
Commercial name : DTS-HD Master Audio
Codec ID : A_DTS
Duration : 1 h 27 min
Bit rate mode : Variable
Bit rate : 3 453 kb/s
Channel(s) : 6 channels
Channel layout : C L R Ls Rs LFE
Sampling rate : 48.0 kHz
Frame rate : 93.750 FPS (512 SPF)
Bit depth : 24 bits
Compression mode : Lossless
Stream size : 2.12 GiB (11%)
Title : DTS-HD MA 5.1
Language : English
Default : Yes
Forced : No
Original source medium : Blu-ray

Text #1
ID : 3
Format : UTF-8
Codec ID : S_TEXT/UTF8
Codec ID/Info : UTF-8 Plain Text
Duration : 1 h 20 min
Bit rate : 65 b/s
Count of elements : 1130
Stream size : 38.5 KiB (0%)
Title : English-SRT
Language : English
Default : Yes
Forced : No

Text #2
ID : 4
Format : UTF-8
Codec ID : S_TEXT/UTF8
Codec ID/Info : UTF-8 Plain Text
Duration : 1 h 27 min
Bit rate : 71 b/s
Count of elements : 1417
Stream size : 45.9 KiB (0%)
Title : English-SDH-SRT
Language : English
Default : No
Forced : No

Text #3
ID : 5
ID in the original source medium : 4608 (0x1200)
Format : PGS
Muxing mode : zlib
Codec ID : S_HDMV/PGS
Codec ID/Info : Picture based subtitle format used on BDs/HD-DVDs
Duration : 1 h 27 min
Bit rate : 38.4 kb/s
Count of elements : 2834
Stream size : 23.9 MiB (0%)
Title : English-PGS
Language : English
Default : No
Forced : No
Original source medium : Blu-ray

Menu
00:00:00.000 : en:Chapter 01
00:09:38.244 : en:Chapter 02
00:19:33.797 : en:Chapter 03
00:29:45.533 : en:Chapter 04
00:39:45.216 : en:Chapter 05
00:50:09.798 : en:Chapter 06
01:00:23.786 : en:Chapter 07
01:08:01.118 : en:Chapter 08
01:16:45.309 : en:Chapter 09
01:22:13.345 : en:Chapter 10

本帖子中包含更多资源

您需要 登录 才可以下载或查看,没有帐号?立即注册

x
回复

使用道具 举报

0

主题

121

帖子

676

积分

高级会员

Rank: 4

积分
676
发表于 2021-2-20 16:59:00 | 显示全部楼层
感谢楼主分享
回复

使用道具 举报

0

主题

246

帖子

1146

积分

金牌会员

Rank: 6Rank: 6

积分
1146
发表于 7 天前 | 显示全部楼层
谢谢楼主分享
回复

使用道具 举报

0

主题

107

帖子

201

积分

中级会员

Rank: 3Rank: 3

积分
201
发表于 6 天前 | 显示全部楼层
感谢楼主发帖
回复

使用道具 举报

0

主题

1032

帖子

7831

积分

VIP永久

Rank: 12Rank: 12Rank: 12

积分
7831
发表于 6 天前 | 显示全部楼层
谢谢楼主分享!!!!!
回复

使用道具 举报

0

主题

303

帖子

1702

积分

金牌会员

Rank: 6Rank: 6

积分
1702
发表于 5 天前 | 显示全部楼层
谢楼主分享
回复

使用道具 举报

您需要登录后才可以回帖 登录 | 立即注册

本版积分规则

QQ|Archiver|手机版|小黑屋|原盘天堂 盘盘多 点击这里给我发消息

GMT+8, 2021-2-28 20:20 , Processed in 0.059569 second(s), 25 queries .

Powered by Discuz! X3.4

Copyright © 2001-2020, Tencent Cloud.

快速回复 返回顶部 返回列表