请选择 进入手机版 | 继续访问电脑版
本站原来Q群已取消,请原Q群会员和其他未入群会员加原盘天堂新官方QQ群713428235【盘盘多】,验证信息填写您在论坛的会员名,不填会员名的无法入群哈,进群后修改您的群名片名字为您在论坛的会员名,请务必修改,否则群成员多了不知道您是哪个会员。

原盘天堂

 找回密码
 立即注册
查看: 37|回复: 3

2d蓝光原盘bdmv 丝绸之路 英语原版 silk.road.2021.1080p.bluray.avc.dts-hd.ma.5.1[44.02 GB]

[复制链接]

5672

主题

6261

帖子

131万

积分

管理员

Rank: 18Rank: 18Rank: 18Rank: 18Rank: 18

积分
1318026
发表于 2021-2-20 10:45:35 | 显示全部楼层 |阅读模式








丝绸之路 Silk Road (2021)

导演: Tiller Russell
编剧: David Kushner / Tiller Russell
主演: 尼克·罗宾森 / 亚历山德拉·希普 / 吉米·辛普森 / 杰森·克拉克 / 保罗·布特 / 更多...
类型: 剧情 / 惊悚 / 犯罪
制片国家/地区: 美国
语言: 英语
上映日期: 2021-02-19(美国)
片长: 112分钟
又名: 丝绸之路的僵局 / Dead End on Silk Road

豆瓣评分
6.1
118人评价
5星 7.4%
4星 17.9%
3星 49.5%
2星 22.1%
1星 3.2%

剧情简介 · · · · · ·
  尼克·罗宾森、杰森·克拉克将主演犯罪题材新片[丝绸之路](Silk Road,暂译)。本片由蒂勒·罗素([耻归故里])执导,根据大卫·库什纳发表在《滚石》杂志的文章《丝绸之路的僵局》(Dead End on Silk Road)改编。文章讲述黑客、毒贩罗斯·乌布里希特经营着一个庞大的网上黑市。本片将聚焦乌布里希特以及决心搞垮这个年轻主脑价值10亿美元帝国的缉毒员间的故事。

DISC INFO:

Disc Title:     Silk.Road.2021.1080p.BluRay.AVC.DTS-HD.MA.5.1-FGT
Disc Size:      47,268,365,344 bytes
Protection:     AACS
Extras:         BD-Java
BDInfo:         0.7.5.9 (compatible layout created by DVDFab 12.0.1.8)

PLAYLIST REPORT:

Name:                   00664.MPLS  
Length:                 1:56:44.956 (h:m:s.ms)
Size:                   34,007,033,856 bytes
Total Bitrate:          38.84 Mbps

VIDEO:

Codec                   Bitrate             Description     
-----                   -------             -----------     
MPEG-4 AVC Video        34389 kbps          1080p / 23.976 fps / 16:9 / High Profile 4.1

AUDIO:

Codec                           Language        Bitrate         Description     
-----                           --------        -------         -----------     
DTS-HD Master Audio             English         2167 kbps       5.1 / 48 kHz / 2167 kbps / 24-bit (DTS Core: 5.1 / 48 kHz / 1509 kbps / 24-bit)
Dolby Digital Audio             English         192 kbps        2.0 / 48 kHz / 192 kbps

SUBTITLES:

Codec                           Language        Bitrate         Description     
-----                           --------        -------         -----------     
Presentation Graphics           English         44.061 kbps                     
Presentation Graphics           Spanish         39.205 kbps                     
Presentation Graphics           English         40.622 kbps     

Video
ID : 1
ID in the original source medium : 4113 (0x1011)
Format : AVC
Format/Info : Advanced Video Codec
Format profile : [email protected]
Format settings : CABAC / 4 Ref Frames
Format settings, CABAC : Yes
Format settings, Reference frames : 4 frames
Codec ID : V_MPEG4/ISO/AVC
Duration : 1 h 56 min
Bit rate mode : Variable
Bit rate : 34.3 Mb/s
Maximum bit rate : 37.0 Mb/s
Width : 1 920 pixels
Height : 1 080 pixels
Display aspect ratio : 16:9
Frame rate mode : Constant
Frame rate : 23.976 (24000/1001) FPS
Color space : YUV
Chroma subsampling : 4:2:0
Bit depth : 8 bits
Scan type : Progressive
Bits/(Pixel*Frame) : 0.689
Stream size : 27.9 GiB (93%)
Language : English
Default : No
Forced : No
Original source medium : Blu-ray

Audio #1
ID : 2
ID in the original source medium : 4352 (0x1100)
Format : DTS XLL
Format/Info : Digital Theater Systems
Commercial name : DTS-HD Master Audio
Codec ID : A_DTS
Duration : 1 h 56 min
Bit rate mode : Variable
Bit rate : 2 167 kb/s
Channel(s) : 6 channels
Channel layout : C L R Ls Rs LFE
Sampling rate : 48.0 kHz
Frame rate : 93.750 FPS (512 SPF)
Bit depth : 24 bits
Compression mode : Lossless
Stream size : 1.77 GiB (6%)
Title : DTS-HD MA 5.1
Language : English
Default : Yes
Forced : No
Original source medium : Blu-ray

Audio #2
ID : 3
ID in the original source medium : 4353 (0x1101)
Format : AC-3
Format/Info : Audio Coding 3
Commercial name : Dolby Digital
Codec ID : A_AC3
Duration : 1 h 56 min
Bit rate mode : Constant
Bit rate : 192 kb/s
Channel(s) : 2 channels
Channel layout : L R
Sampling rate : 48.0 kHz
Frame rate : 31.250 FPS (1536 SPF)
Compression mode : Lossy
Stream size : 160 MiB (1%)
Title : DD 2.0
Language : English
Service kind : Complete Main
Default : No
Forced : No
Original source medium : Blu-ray

Text #1
ID : 4
Format : UTF-8
Codec ID : S_TEXT/UTF8
Codec ID/Info : UTF-8 Plain Text
Duration : 1 h 47 min
Bit rate : 71 b/s
Count of elements : 1619
Stream size : 56.7 KiB (0%)
Title : English-SRT
Language : English
Default : Yes
Forced : No

Text #2
ID : 5
ID in the original source medium : 4608 (0x1200)
Format : PGS
Muxing mode : zlib
Codec ID : S_HDMV/PGS
Codec ID/Info : Picture based subtitle format used on BDs/HD-DVDs
Duration : 1 h 48 min
Bit rate : 47.4 kb/s
Count of elements : 3458
Stream size : 36.8 MiB (0%)
Title : English-PGS
Language : English
Default : No
Forced : No
Original source medium : Blu-ray

Text #3
ID : 6
ID in the original source medium : 4609 (0x1201)
Format : PGS
Muxing mode : zlib
Codec ID : S_HDMV/PGS
Codec ID/Info : Picture based subtitle format used on BDs/HD-DVDs
Duration : 1 h 48 min
Bit rate : 42.0 kb/s
Count of elements : 3168
Stream size : 32.7 MiB (0%)
Title : Spanish-PGS
Language : Spanish
Default : No
Forced : No
Original source medium : Blu-ray

Text #4
ID : 7
ID in the original source medium : 4610 (0x1202)
Format : PGS
Muxing mode : zlib
Codec ID : S_HDMV/PGS
Codec ID/Info : Picture based subtitle format used on BDs/HD-DVDs
Duration : 1 h 47 min
Bit rate : 44.0 kb/s
Count of elements : 3134
Stream size : 33.9 MiB (0%)
Title : English-FORCED-PGS
Language : English
Default : No
Forced : No
Original source medium : Blu-ray

Menu
00:00:00.000 : en:Chapter 01
00:04:57.797 : en:Chapter 02
00:10:53.986 : en:Chapter 03
00:18:47.251 : en:Chapter 04
00:24:07.821 : en:Chapter 05
00:30:02.759 : en:Chapter 06
00:34:28.733 : en:Chapter 07
00:40:52.491 : en:Chapter 08
00:47:19.545 : en:Chapter 09
00:55:24.237 : en:Chapter 10
01:04:29.073 : en:Chapter 11
01:13:10.052 : en:Chapter 12
01:21:47.819 : en:Chapter 13
01:30:01.729 : en:Chapter 14
01:37:16.163 : en:Chapter 15
01:44:17.084 : en:Chapter 16

本帖子中包含更多资源

您需要 登录 才可以下载或查看,没有帐号?立即注册

x
回复

使用道具 举报

0

主题

246

帖子

1146

积分

金牌会员

Rank: 6Rank: 6

积分
1146
发表于 7 天前 | 显示全部楼层
谢谢楼主分享
回复

使用道具 举报

0

主题

1032

帖子

7831

积分

VIP永久

Rank: 12Rank: 12Rank: 12

积分
7831
发表于 6 天前 | 显示全部楼层
感谢楼主分享!!!!!
回复

使用道具 举报

0

主题

22

帖子

163

积分

注册会员

Rank: 2

积分
163
发表于 前天 19:08 | 显示全部楼层
感谢分享。楼主辛苦了。
回复

使用道具 举报

您需要登录后才可以回帖 登录 | 立即注册

本版积分规则

QQ|Archiver|手机版|小黑屋|原盘天堂 盘盘多 点击这里给我发消息

GMT+8, 2021-2-28 21:34 , Processed in 0.051464 second(s), 25 queries .

Powered by Discuz! X3.4

Copyright © 2001-2020, Tencent Cloud.

快速回复 返回顶部 返回列表