请选择 进入手机版 | 继续访问电脑版
本站原来Q群已取消,请原Q群会员和其他未入群会员加原盘天堂新官方QQ群713428235【盘盘多】,验证信息填写您在论坛的会员名,不填会员名的无法入群哈,进群后修改您的群名片名字为您在论坛的会员名,请务必修改,否则群成员多了不知道您是哪个会员。

原盘天堂

 找回密码
 立即注册
查看: 86|回复: 9

2d蓝光原盘bdmv lx 2048 英语原版 lx.2048.2020.1080p.bluray.avc.dts-hd.ma.5.1[18.25 GB]

[复制链接]

5672

主题

6261

帖子

131万

积分

管理员

Rank: 18Rank: 18Rank: 18Rank: 18Rank: 18

积分
1318026
发表于 2021-2-18 12:01:33 | 显示全部楼层 |阅读模式








LX 2048 (2020)

导演: Guy Moshe
编剧: Guy Moshe
主演: 詹姆斯·达西 / 吉娜·麦基 / 德尔罗伊·林多 / 安娜·布雷维斯特 / 朱丽叶特·奥布瑞 / 更多...
类型: 剧情 / 科幻
制片国家/地区: 美国 / 立陶宛
语言: 英语
上映日期: 2020-09-25(美国)
又名: 001LithiumX

豆瓣评分
5.8
97人评价
5星 5.0%
4星 21.3%
3星 38.8%
2星 30.0%
1星 5.0%

剧情简介 · · · · · ·
  故事讲述在不久的将来,太阳已经变得有毒,人们无法在白天离开家,正常的生活大多在虚拟环境中进行。 在这种反乌托邦背景下,一个垂死的人寻求确保家人的未来幸福,同时应对在这个新现实中成为人的意义。

DISC INFO:

Disc Title:     LX.2048.2020.COMPLETE.BLURAY-INCUBO
Disc Size:      19,598,019,891 bytes
Protection:     AACS
BDInfo:         0.7.5.9 (compatible layout created by DVDFab 12.0.1.8)

PLAYLIST REPORT:

Name:                   00000.MPLS  
Length:                 1:43:29.203 (h:m:s.ms)
Size:                   19,267,479,552 bytes
Total Bitrate:          24.82 Mbps

VIDEO:

Codec                   Bitrate             Description     
-----                   -------             -----------     
MPEG-4 AVC Video        19992 kbps          1080p / 23.976 fps / 16:9 / High Profile 4.1

AUDIO:

Codec                           Language        Bitrate         Description     
-----                           --------        -------         -----------     
LPCM Audio                      English         1536 kbps       2.0 / 48 kHz / 1536 kbps / 16-bit
DTS-HD Master Audio             English         1690 kbps       5.1 / 48 kHz / 1690 kbps / 16-bit (DTS Core: 5.1 / 48 kHz / 1509 kbps / 16-bit)

SUBTITLES:

Codec                           Language        Bitrate         Description     
-----                           --------        -------         -----------     
Presentation Graphics           English         45.886 kbps         


Video
ID : 1
ID in the original source medium : 4113 (0x1011)
Format : AVC
Format/Info : Advanced Video Codec
Format profile : [email protected]
Format settings : CABAC / 4 Ref Frames
Format settings, CABAC : Yes
Format settings, Reference frames : 4 frames
Codec ID : V_MPEG4/ISO/AVC
Duration : 1 h 43 min
Bit rate mode : Variable
Bit rate : 19.9 Mb/s
Maximum bit rate : 38.0 Mb/s
Width : 1 920 pixels
Height : 1 080 pixels
Display aspect ratio : 16:9
Frame rate mode : Constant
Frame rate : 23.976 (24000/1001) FPS
Color space : YUV
Chroma subsampling : 4:2:0
Bit depth : 8 bits
Scan type : Progressive
Bits/(Pixel*Frame) : 0.400
Stream size : 14.4 GiB (86%)
Language : English
Default : No
Forced : No
Original source medium : Blu-ray

Audio #1
ID : 2
ID in the original source medium : 4353 (0x1101)
Format : DTS XLL
Format/Info : Digital Theater Systems
Commercial name : DTS-HD Master Audio
Codec ID : A_DTS
Duration : 1 h 43 min
Bit rate mode : Variable
Bit rate : 1 690 kb/s
Channel(s) : 6 channels
Channel layout : C L R Ls Rs LFE
Sampling rate : 48.0 kHz
Frame rate : 93.750 FPS (512 SPF)
Bit depth : 16 bits
Compression mode : Lossless
Stream size : 1.22 GiB (7%)
Title : DTS-HD MA 5.1
Language : English
Default : Yes
Forced : No
Original source medium : Blu-ray

Audio #2
ID : 3
ID in the original source medium : 4352 (0x1100)
Format : PCM
Format settings : Little / Signed
Codec ID : A_PCM/INT/LIT
Duration : 1 h 43 min
Bit rate mode : Constant
Bit rate : 1 536 kb/s
Channel(s) : 2 channels
Sampling rate : 48.0 kHz
Frame rate : 30.000 FPS (1600 SPF)
Bit depth : 16 bits
Stream size : 1.11 GiB (7%)
Title : LPCM 2.0
Language : English
Default : No
Forced : No
Original source medium : Blu-ray

Text #1
ID : 4
Format : UTF-8
Codec ID : S_TEXT/UTF8
Codec ID/Info : UTF-8 Plain Text
Duration : 1 h 40 min
Bit rate : 70 b/s
Count of elements : 1682
Stream size : 52.0 KiB (0%)
Title : English-SRT
Language : English
Default : Yes
Forced : No

Text #2
ID : 5
ID in the original source medium : 4608 (0x1200)
Format : PGS
Muxing mode : zlib
Codec ID : S_HDMV/PGS
Codec ID/Info : Picture based subtitle format used on BDs/HD-DVDs
Duration : 1 h 40 min
Bit rate : 47.0 kb/s
Count of elements : 3390
Stream size : 34.0 MiB (0%)
Title : English-PGS
Language : English
Default : No
Forced : No
Original source medium : Blu-ray

Menu
00:00:00.000 : en:Chapter 01
00:08:18.289 : en:Chapter 02
00:19:59.364 : en:Chapter 03
00:29:52.040 : en:Chapter 04
00:39:04.175 : en:Chapter 05
00:49:24.211 : en:Chapter 06
01:03:09.160 : en:Chapter 07
01:09:07.768 : en:Chapter 08
01:13:27.736 : en:Chapter 09
01:18:36.461 : en:Chapter 10
01:22:12.010 : en:Chapter 11
01:37:59.748 : en:Chapter 12

本帖子中包含更多资源

您需要 登录 才可以下载或查看,没有帐号?立即注册

x
回复

使用道具 举报

0

主题

246

帖子

1146

积分

金牌会员

Rank: 6Rank: 6

积分
1146
发表于 2021-2-19 09:57:11 | 显示全部楼层
谢谢楼主分享
回复

使用道具 举报

0

主题

11

帖子

40

积分

新手上路

Rank: 1

积分
40
发表于 2021-2-19 10:40:33 | 显示全部楼层
十分大十大撒旦发生大十大
回复

使用道具 举报

0

主题

1125

帖子

4813

积分

论坛元老

Rank: 8Rank: 8

积分
4813
发表于 2021-2-19 15:18:39 | 显示全部楼层
感谢楼主分享高清影片
回复

使用道具 举报

0

主题

2

帖子

13

积分

新手上路

Rank: 1

积分
13
发表于 2021-2-20 00:30:08 | 显示全部楼层
好好好 我喜欢
回复

使用道具 举报

0

主题

246

帖子

1146

积分

金牌会员

Rank: 6Rank: 6

积分
1146
发表于 2021-2-20 10:31:05 | 显示全部楼层
多谢楼主分享高清资源
回复

使用道具 举报

0

主题

122

帖子

681

积分

高级会员

Rank: 4

积分
681
发表于 2021-2-20 17:19:22 | 显示全部楼层
感谢楼主分享高清影片
回复

使用道具 举报

0

主题

38

帖子

153

积分

注册会员

Rank: 2

积分
153
发表于 5 天前 | 显示全部楼层
多谢楼主分享高清资源
回复

使用道具 举报

0

主题

303

帖子

1702

积分

金牌会员

Rank: 6Rank: 6

积分
1702
发表于 5 天前 | 显示全部楼层
谢楼主分享
回复

使用道具 举报

0

主题

39

帖子

163

积分

注册会员

Rank: 2

积分
163
发表于 前天 13:12 | 显示全部楼层
感谢楼主分享
回复

使用道具 举报

您需要登录后才可以回帖 登录 | 立即注册

本版积分规则

QQ|Archiver|手机版|小黑屋|原盘天堂 盘盘多 点击这里给我发消息

GMT+8, 2021-2-28 21:13 , Processed in 0.056460 second(s), 25 queries .

Powered by Discuz! X3.4

Copyright © 2001-2020, Tencent Cloud.

快速回复 返回顶部 返回列表