请选择 进入手机版 | 继续访问电脑版
本站原来Q群已取消,请原Q群会员和其他未入群会员加原盘天堂新官方QQ群713428235【盘盘多】,验证信息填写您在论坛的会员名,不填会员名的无法入群哈,进群后修改您的群名片名字为您在论坛的会员名,请务必修改,否则群成员多了不知道您是哪个会员。

原盘天堂

 找回密码
 立即注册
查看: 58|回复: 8

4k蓝光原盘bdmv 英国佬 英语原版 the.limey.1999.2160p.bluray.hevc.dts-hd.ma.5.1[54.34 GB]

[复制链接]

5672

主题

6261

帖子

131万

积分

管理员

Rank: 18Rank: 18Rank: 18Rank: 18Rank: 18

积分
1317976
发表于 2021-2-18 11:25:05 | 显示全部楼层 |阅读模式








英国佬 The Limey (1999)

导演: 史蒂文·索德伯格
编剧: 莱姆·多布斯
主演: 特伦斯·斯坦普
类型: 剧情 / 悬疑 / 惊悚 / 犯罪
制片国家/地区: 美国
语言: 英语
上映日期: 2000-04-26
片长: 89 分钟
又名: 菩提树下 / 英国水手

豆瓣评分
6.7
417人评价
5星 6.5%
4星 36.8%
3星 46.3%
2星 7.4%
1星 3.0%

剧情简介 · · · · · ·
  著名的韦氏词典中“Limey“的解释之一是“英国水手”,在这部斯蒂芬·索德伯赫的的作品中,我们的主人公曾经做过水手。这位倔强的英国人来到洛杉矶一心要为自己的爱女复仇。所以本片取名“Limey”意为讲述一个在洛杉矶因为愤怒、复仇而迷失了自己的人——威尔森。

DISC INFO:

Disc Title:     The.Limey.1999.COMPLETE.UHD.BLURAY-BLIMEY
Disc Size:      58,327,177,000 bytes
Protection:     AACS2
Extras:         Ultra HD
BDInfo:         0.7.5.9 (compatible layout created by DVDFab 12.0.1.8)

PLAYLIST REPORT:

Name:                   00000.MPLS  
Length:                 1:28:44.319 (h:m:s.ms)
Size:                   46,385,534,976 bytes
Total Bitrate:          69.70 Mbps

(*) Indicates included stream hidden by this playlist.

VIDEO:

Codec                   Bitrate             Description     
-----                   -------             -----------     
MPEG-H HEVC Video       53998 kbps          2160p / 23.976 fps / 16:9 / Main 10 @ Level 5.1 @ High / 4:2:0 / 10 bits / 1000nits / HDR10 / BT.2020
* MPEG-H HEVC Video     6072 kbps (10.11%)  1080p / 23.976 fps / 16:9 / Main 10 @ Level 5.1 @ High / 4:2:0 / 10 bits / 1000nits / Dolby Vision FEL / BT.2020

AUDIO:

Codec                           Language        Bitrate         Description     
-----                           --------        -------         -----------     
DTS-HD Master Audio             French          2167 kbps       5.1 / 48 kHz / 2167 kbps / 16-bit (DTS Core: 5.1 / 48 kHz / 1509 kbps / 16-bit)
DTS-HD Master Audio             English         2315 kbps       5.1 / 48 kHz / 2315 kbps / 16-bit (DTS Core: 5.1 / 48 kHz / 1509 kbps / 16-bit)
DTS Audio                       English         768 kbps        2.0 / 48 kHz / 768 kbps / 16-bit
DTS Audio                       English         768 kbps        2.0 / 48 kHz / 768 kbps / 16-bit

SUBTITLES:

Codec                           Language        Bitrate         Description     
-----                           --------        -------         -----------     
Presentation Graphics           French          0.233 kbps                     
Presentation Graphics           French          27.379 kbps   

Video
ID : 1
ID in the original source medium : 4113 (0x1011)
Format : HEVC
Format/Info : High Efficiency Video Coding
Format profile : Main [email protected]@High
HDR format : SMPTE ST 2086, HDR10 compatible
Codec ID : V_MPEGH/ISO/HEVC
Duration : 1 h 28 min
Bit rate : 54.0 Mb/s
Width : 3 840 pixels
Height : 2 160 pixels
Display aspect ratio : 16:9
Frame rate mode : Constant
Frame rate : 23.976 (24000/1001) FPS
Color space : YUV
Chroma subsampling : 4:2:0 (Type 2)
Bit depth : 10 bits
Bits/(Pixel*Frame) : 0.272
Stream size : 33.5 GiB (89%)
Language : English
Default : No
Forced : No
Color range : Limited
Color primaries : BT.2020
Transfer characteristics : PQ
Matrix coefficients : BT.2020 non-constant
Mastering display color primaries : Display P3
Mastering display luminance : min: 0.0001 cd/m2, max: 1000 cd/m2
Original source medium : Blu-ray

Audio #1
ID : 2
ID in the original source medium : 4353 (0x1101)
Format : DTS XLL
Format/Info : Digital Theater Systems
Commercial name : DTS-HD Master Audio
Codec ID : A_DTS
Duration : 1 h 28 min
Bit rate mode : Variable
Bit rate : 2 315 kb/s
Channel(s) : 6 channels
Channel layout : C L R Ls Rs LFE
Sampling rate : 48.0 kHz
Frame rate : 93.750 FPS (512 SPF)
Bit depth : 16 bits
Compression mode : Lossless
Delay relative to video : 1 s 1 ms
Stream size : 1.44 GiB (4%)
Title : DTS-HD MA 5.1
Language : English
Default : Yes
Forced : No
Original source medium : Blu-ray

Audio #2
ID : 3
Format : AC-3
Format/Info : Audio Coding 3
Commercial name : Dolby Digital
Codec ID : A_AC3
Duration : 1 h 28 min
Bit rate mode : Constant
Bit rate : 640 kb/s
Channel(s) : 6 channels
Channel layout : L R C LFE Ls Rs
Sampling rate : 48.0 kHz
Frame rate : 31.250 FPS (1536 SPF)
Compression mode : Lossy
Stream size : 407 MiB (1%)
Title : DD 5.1
Language : English
Service kind : Complete Main
Default : No
Forced : No

Audio #3
ID : 4
ID in the original source medium : 4352 (0x1100)
Format : DTS XLL
Format/Info : Digital Theater Systems
Commercial name : DTS-HD Master Audio
Codec ID : A_DTS
Duration : 1 h 28 min
Bit rate mode : Variable
Bit rate : 2 167 kb/s
Channel(s) : 6 channels
Channel layout : C L R Ls Rs LFE
Sampling rate : 48.0 kHz
Frame rate : 93.750 FPS (512 SPF)
Bit depth : 16 bits
Compression mode : Lossless
Delay relative to video : 1 s 1 ms
Stream size : 1.34 GiB (4%)
Title : DTS-HD MA 5.1
Language : French
Default : No
Forced : No
Original source medium : Blu-ray

Audio #4
ID : 5
ID in the original source medium : 4354 (0x1102)
Format : DTS
Format/Info : Digital Theater Systems
Codec ID : A_DTS
Duration : 1 h 28 min
Bit rate mode : Constant
Bit rate : 768 kb/s
Channel(s) : 2 channels
Channel layout : L R
Sampling rate : 48.0 kHz
Frame rate : 93.750 FPS (512 SPF)
Bit depth : 16 bits
Compression mode : Lossy
Delay relative to video : 1 s 1 ms
Stream size : 487 MiB (1%)
Title : DTS 2.0
Language : English
Default : No
Forced : No
Original source medium : Blu-ray

Audio #5
ID : 6
ID in the original source medium : 4355 (0x1103)
Format : DTS
Format/Info : Digital Theater Systems
Codec ID : A_DTS
Duration : 1 h 28 min
Bit rate mode : Constant
Bit rate : 768 kb/s
Channel(s) : 2 channels
Channel layout : L R
Sampling rate : 48.0 kHz
Frame rate : 93.750 FPS (512 SPF)
Bit depth : 16 bits
Compression mode : Lossy
Delay relative to video : 1 s 1 ms
Stream size : 487 MiB (1%)
Title : DTS 2.0
Language : English
Default : No
Forced : No
Original source medium : Blu-ray

Text #1
ID : 7
Format : UTF-8
Codec ID : S_TEXT/UTF8
Codec ID/Info : UTF-8 Plain Text
Duration : 1 h 25 min
Bit rate : 46 b/s
Count of elements : 912
Stream size : 29.1 KiB (0%)
Title : English-SRT
Language : English
Default : Yes
Forced : No

Text #2
ID : 8
ID in the original source medium : 4768 (0x12A0)
Format : PGS
Muxing mode : zlib
Codec ID : S_HDMV/PGS
Codec ID/Info : Picture based subtitle format used on BDs/HD-DVDs
Duration : 1 h 28 min
Bit rate : 235 b/s
Count of elements : 20
Stream size : 152 KiB (0%)
Title : French-PGS
Language : French
Default : No
Forced : No
Original source medium : Blu-ray

Text #3
ID : 9
ID in the original source medium : 4769 (0x12A1)
Format : PGS
Muxing mode : zlib
Codec ID : S_HDMV/PGS
Codec ID/Info : Picture based subtitle format used on BDs/HD-DVDs
Duration : 1 h 28 min
Bit rate : 27.5 kb/s
Count of elements : 1936
Stream size : 17.4 MiB (0%)
Title : French-FORCED-PGS
Language : French
Default : No
Forced : No
Original source medium : Blu-ray

Menu
00:00:00.000 : en:Chapter 01
00:14:29.702 : en:Chapter 02
00:27:45.413 : en:Chapter 03
00:44:56.568 : en:Chapter 04
01:01:26.683 : en:Chapter 05
01:10:06.076 : en:Chapter 06
01:22:51.883 : en:Chapter 07
01:25:27.122 : en:Chapter 08

本帖子中包含更多资源

您需要 登录 才可以下载或查看,没有帐号?立即注册

x
回复

使用道具 举报

0

主题

1032

帖子

7831

积分

VIP永久

Rank: 12Rank: 12Rank: 12

积分
7831
发表于 2021-2-18 13:48:45 | 显示全部楼层

感谢楼主分享!!!
回复

使用道具 举报

0

主题

4

帖子

18

积分

新手上路

Rank: 1

积分
18
发表于 2021-2-18 21:54:02 | 显示全部楼层
专业 感谢分享
回复

使用道具 举报

0

主题

246

帖子

1146

积分

金牌会员

Rank: 6Rank: 6

积分
1146
发表于 2021-2-19 09:58:42 | 显示全部楼层
谢谢楼主分享
回复

使用道具 举报

0

主题

63

帖子

362

积分

中级会员

Rank: 3Rank: 3

积分
362
发表于 2021-2-19 11:50:12 | 显示全部楼层

感谢楼主分享 希望楼主多分享好的资源  再次感谢
回复

使用道具 举报

0

主题

303

帖子

1702

积分

金牌会员

Rank: 6Rank: 6

积分
1702
发表于 2021-2-19 13:29:57 | 显示全部楼层
谢楼主分享
回复

使用道具 举报

0

主题

1125

帖子

4813

积分

论坛元老

Rank: 8Rank: 8

积分
4813
发表于 2021-2-19 15:17:53 | 显示全部楼层
感谢楼主分享高清影片
回复

使用道具 举报

0

主题

116

帖子

1274

积分

金牌会员

Rank: 6Rank: 6

积分
1274
发表于 7 天前 | 显示全部楼层
谢谢分享 支持支持
回复

使用道具 举报

0

主题

107

帖子

201

积分

中级会员

Rank: 3Rank: 3

积分
201
发表于 6 天前 | 显示全部楼层
感谢楼主发帖
回复

使用道具 举报

您需要登录后才可以回帖 登录 | 立即注册

本版积分规则

QQ|Archiver|手机版|小黑屋|原盘天堂 盘盘多 点击这里给我发消息

GMT+8, 2021-2-28 20:12 , Processed in 0.057403 second(s), 24 queries .

Powered by Discuz! X3.4

Copyright © 2001-2020, Tencent Cloud.

快速回复 返回顶部 返回列表