请选择 进入手机版 | 继续访问电脑版
本站原来Q群已取消,请原Q群会员和其他未入群会员加原盘天堂新官方QQ群713428235【盘盘多】,验证信息填写您在论坛的会员名,不填会员名的无法入群哈,进群后修改您的群名片名字为您在论坛的会员名,请务必修改,否则群成员多了不知道您是哪个会员。

原盘天堂

 找回密码
 立即注册
查看: 96|回复: 8

2d蓝光原盘bdmv 剑客 韩语原版 the.swordsman.2020.korean.1080p.bluray.avc.dts-hd.ma5.1[21.47 GB]

[复制链接]

5672

主题

6261

帖子

131万

积分

管理员

Rank: 18Rank: 18Rank: 18Rank: 18Rank: 18

积分
1318026
发表于 2021-2-17 22:54:06 | 显示全部楼层 |阅读模式








剑客 검객 (2020)

导演: 崔在勋
编剧: 崔在勋
主演: 张赫 / 郑满植 / 乔·塔斯利姆 / 崔镇浩 / 金贤秀 / 更多...
类型: 动作
制片国家/地区: 韩国
语言: 韩语
上映日期: 2020-09-23(韩国)
片长: 100分钟
又名: Swordsman

豆瓣评分
6.0
752人评价
5星 6.9%
4星 15.9%
3星 52.1%
2星 18.3%
1星 6.9%

剧情简介 · · · · · ·
  该片讲述光海君废位时期,朝鲜最佳剑客“泰率”(张赫 饰)为了寻找消失的女儿再次举起剑的追击动作电影。

DISC INFO:

Disc Title:     The.Swordsman.2020.KOREAN.1080p.BluRay.AVC.DTS-HD.MA5.1-FGT
Disc Size:      23,054,395,923 bytes
Protection:     AACS
BDInfo:         0.7.5.9 (compatible layout created by DVDFab 12.0.1.8)

PLAYLIST REPORT:

Name:                   00001.MPLS  
Length:                 1:40:39.199 (h:m:s.ms)
Size:                   21,158,449,152 bytes
Total Bitrate:          28.03 Mbps

VIDEO:

Codec                   Bitrate             Description     
-----                   -------             -----------     
MPEG-4 AVC Video        20726 kbps          1080p / 23.976 fps / 16:9 / High Profile 4.1

AUDIO:

Codec                           Language        Bitrate         Description     
-----                           --------        -------         -----------     
DTS-HD Master Audio             Korean          2448 kbps       5.1 / 48 kHz / 2448 kbps / 16-bit (DTS Core: 5.1 / 48 kHz / 1509 kbps / 16-bit)
Dolby Digital Audio             Korean          384 kbps        2.0 / 48 kHz / 384 kbps
DTS-HD Master Audio             English         2321 kbps       5.1 / 48 kHz / 2321 kbps / 16-bit (DTS Core: 5.1 / 48 kHz / 1509 kbps / 16-bit)
Dolby Digital Audio             English         384 kbps        2.0 / 48 kHz / 384 kbps

SUBTITLES:

Codec                           Language        Bitrate         Description     
-----                           --------        -------         -----------     
Presentation Graphics           English         16.323 kbps     

Video
ID : 1
ID in the original source medium : 4113 (0x1011)
Format : AVC
Format/Info : Advanced Video Codec
Format profile : [email protected]
Format settings : CABAC / 4 Ref Frames
Format settings, CABAC : Yes
Format settings, Reference frames : 4 frames
Codec ID : V_MPEG4/ISO/AVC
Duration : 1 h 40 min
Bit rate mode : Variable
Bit rate : 20.2 Mb/s
Maximum bit rate : 21.0 Mb/s
Width : 1 920 pixels
Height : 1 080 pixels
Display aspect ratio : 16:9
Frame rate mode : Constant
Frame rate : 23.976 (24000/1001) FPS
Color space : YUV
Chroma subsampling : 4:2:0
Bit depth : 8 bits
Scan type : Progressive
Bits/(Pixel*Frame) : 0.407
Stream size : 14.2 GiB (78%)
Language : English
Default : No
Forced : No
Original source medium : Blu-ray

Audio #1
ID : 2
ID in the original source medium : 4352 (0x1100)
Format : DTS XLL
Format/Info : Digital Theater Systems
Commercial name : DTS-HD Master Audio
Codec ID : A_DTS
Duration : 1 h 40 min
Bit rate mode : Variable
Bit rate : 2 448 kb/s
Channel(s) : 6 channels
Channel layout : C L R Ls Rs LFE
Sampling rate : 48.0 kHz
Frame rate : 93.750 FPS (512 SPF)
Bit depth : 16 bits
Compression mode : Lossless
Stream size : 1.72 GiB (10%)
Title : DTS-HD MA 5.1
Language : Korean
Default : Yes
Forced : No
Original source medium : Blu-ray

Audio #2
ID : 3
ID in the original source medium : 4353 (0x1101)
Format : AC-3
Format/Info : Audio Coding 3
Commercial name : Dolby Digital
Codec ID : A_AC3
Duration : 1 h 40 min
Bit rate mode : Constant
Bit rate : 384 kb/s
Channel(s) : 2 channels
Channel layout : L R
Sampling rate : 48.0 kHz
Frame rate : 31.250 FPS (1536 SPF)
Compression mode : Lossy
Stream size : 276 MiB (1%)
Title : DD 2.0
Language : Korean
Service kind : Complete Main
Default : No
Forced : No
Original source medium : Blu-ray

Audio #3
ID : 4
ID in the original source medium : 4354 (0x1102)
Format : DTS XLL
Format/Info : Digital Theater Systems
Commercial name : DTS-HD Master Audio
Codec ID : A_DTS
Duration : 1 h 40 min
Bit rate mode : Variable
Bit rate : 2 321 kb/s
Channel(s) : 6 channels
Channel layout : C L R Ls Rs LFE
Sampling rate : 48.0 kHz
Frame rate : 93.750 FPS (512 SPF)
Bit depth : 16 bits
Compression mode : Lossless
Stream size : 1.63 GiB (9%)
Title : DTS-HD MA 5.1
Language : English
Default : No
Forced : No
Original source medium : Blu-ray

Audio #4
ID : 5
ID in the original source medium : 4355 (0x1103)
Format : AC-3
Format/Info : Audio Coding 3
Commercial name : Dolby Digital
Codec ID : A_AC3
Duration : 1 h 40 min
Bit rate mode : Constant
Bit rate : 384 kb/s
Channel(s) : 2 channels
Channel layout : L R
Sampling rate : 48.0 kHz
Frame rate : 31.250 FPS (1536 SPF)
Compression mode : Lossy
Stream size : 276 MiB (1%)
Title : DD 2.0
Language : English
Service kind : Complete Main
Default : No
Forced : No
Original source medium : Blu-ray

Text #1
ID : 6
Format : UTF-8
Codec ID : S_TEXT/UTF8
Codec ID/Info : UTF-8 Plain Text
Duration : 1 h 33 min
Bit rate : 27 b/s
Count of elements : 604
Stream size : 18.6 KiB (0%)
Title : English-SRT
Language : English
Default : Yes
Forced : Yes

Text #2
ID : 7
ID in the original source medium : 4608 (0x1200)
Format : PGS
Muxing mode : zlib
Codec ID : S_HDMV/PGS
Codec ID/Info : Picture based subtitle format used on BDs/HD-DVDs
Duration : 1 h 33 min
Bit rate : 17.6 kb/s
Count of elements : 1212
Stream size : 11.8 MiB (0%)
Title : English-PGS
Language : English
Default : No
Forced : No
Original source medium : Blu-ray

Menu
00:00:00.000 : en:Chapter 01
00:07:30.992 : en:Chapter 02
00:14:30.327 : en:Chapter 03
00:22:50.535 : en:Chapter 04
00:29:10.248 : en:Chapter 05
00:35:15.154 : en:Chapter 06
00:46:49.348 : en:Chapter 07
00:55:49.054 : en:Chapter 08
01:05:04.650 : en:Chapter 09
01:16:46.852 : en:Chapter 10
01:22:35.283 : en:Chapter 11
01:36:59.104 : en:Chapter 12

本帖子中包含更多资源

您需要 登录 才可以下载或查看,没有帐号?立即注册

x
回复

使用道具 举报

0

主题

1032

帖子

7831

积分

VIP永久

Rank: 12Rank: 12Rank: 12

积分
7831
发表于 2021-2-18 09:33:49 | 显示全部楼层
感谢楼主分享!!!
回复

使用道具 举报

0

主题

246

帖子

1146

积分

金牌会员

Rank: 6Rank: 6

积分
1146
发表于 2021-2-18 09:52:04 | 显示全部楼层
谢谢楼主分享
回复

使用道具 举报

0

主题

303

帖子

1702

积分

金牌会员

Rank: 6Rank: 6

积分
1702
发表于 2021-2-18 10:14:23 | 显示全部楼层
谢楼主分享
回复

使用道具 举报

0

主题

303

帖子

1702

积分

金牌会员

Rank: 6Rank: 6

积分
1702
发表于 2021-2-19 13:22:13 | 显示全部楼层

谢楼主分享
回复

使用道具 举报

0

主题

1125

帖子

4813

积分

论坛元老

Rank: 8Rank: 8

积分
4813
发表于 2021-2-19 15:19:26 | 显示全部楼层
感谢楼主分享高清影片
回复

使用道具 举报

0

主题

107

帖子

201

积分

中级会员

Rank: 3Rank: 3

积分
201
发表于 6 天前 | 显示全部楼层
感谢楼主发帖
回复

使用道具 举报

0

主题

67

帖子

387

积分

中级会员

Rank: 3Rank: 3

积分
387
发表于 6 天前 | 显示全部楼层

非常经典的大片!值得收藏,谢谢分享!!!
回复

使用道具 举报

0

主题

50

帖子

367

积分

中级会员

Rank: 3Rank: 3

积分
367
发表于 5 天前 | 显示全部楼层
值得收藏,谢谢分享!
回复

使用道具 举报

您需要登录后才可以回帖 登录 | 立即注册

本版积分规则

QQ|Archiver|手机版|小黑屋|原盘天堂 盘盘多 点击这里给我发消息

GMT+8, 2021-2-28 21:32 , Processed in 0.056406 second(s), 25 queries .

Powered by Discuz! X3.4

Copyright © 2001-2020, Tencent Cloud.

快速回复 返回顶部 返回列表