请选择 进入手机版 | 继续访问电脑版
本站原来Q群已取消,请原Q群会员和其他未入群会员加原盘天堂新官方QQ群713428235【盘盘多】,验证信息填写您在论坛的会员名,不填会员名的无法入群哈,进群后修改您的群名片名字为您在论坛的会员名,请务必修改,否则群成员多了不知道您是哪个会员。

原盘天堂

 找回密码
 立即注册
查看: 169|回复: 16

2d蓝光原盘bdmv 姜子牙 国语中字 legend.of.deification.2020.chinese.1080p.bluray.avc.dts-hd.ma.5.1[33.34 GB]

[复制链接]

5672

主题

6261

帖子

131万

积分

管理员

Rank: 18Rank: 18Rank: 18Rank: 18Rank: 18

积分
1318026
发表于 2021-2-15 09:43:43 | 显示全部楼层 |阅读模式






姜子牙 (2020)

导演: 程腾 / 李炜
编剧: 谢茜颖
主演: 郑希 / 杨凝 / 图特哈蒙 / 阎么么 / 季冠霖 / 更多...
类型: 剧情 / 动画 / 奇幻
制片国家/地区: 中国大陆
语言: 汉语普通话
上映日期: 2020-10-01(中国大陆)
片长: 110分钟
又名: Legend of Deification

豆瓣评分
6.8
490507人评价
5星 11.0%
4星 31.9%
3星 43.9%
2星 11.0%
1星 2.2%
好于 31% 动画片
好于 48% 奇幻片

剧情简介 · · · · · ·
  故事发生于封神大战后。姜子牙率领众神伐纣,赢得封神大战胜利,以为可以唤回世间安宁。然而,一切并未结束。一个偶然,姜子牙发现了原来“封神大战”之下酝酿着更大的阴谋。姜子牙开始踏上探寻真相的旅途......

姜子牙 获奖情况
第6届豆瓣电影年度榜单  (2019)
最值得期待的华语电影(提名)

DISC INFO:

Disc Title:     Legend.of.Deification.2020.CHINESE.1080p.BluRay.AVC.DTS-HD.MA.5.1-FGT
Disc Size:      35,797,909,473 bytes
Protection:     AACS
BDInfo:         0.7.5.9 (compatible layout created by DVDFab 12.0.1.8)

PLAYLIST REPORT:

Name:                   00001.MPLS  
Length:                 1:48:41.416 (h:m:s.ms)
Size:                   32,810,840,064 bytes
Total Bitrate:          40.25 Mbps

VIDEO:

Codec                   Bitrate             Description     
-----                   -------             -----------     
MPEG-4 AVC Video        31998 kbps          1080p / 24 fps / 16:9 / High Profile 4.1

AUDIO:

Codec                           Language        Bitrate         Description     
-----                           --------        -------         -----------     
DTS-HD Master Audio             English         2532 kbps       5.1 / 48 kHz / 2532 kbps / 16-bit (DTS Core: 5.1 / 48 kHz / 1509 kbps / 16-bit)
Dolby Digital Audio             English         384 kbps        2.0 / 48 kHz / 384 kbps
DTS-HD Master Audio             Chinese         2616 kbps       5.1 / 48 kHz / 2616 kbps / 16-bit (DTS Core: 5.1 / 48 kHz / 1509 kbps / 16-bit)
Dolby Digital Audio             Chinese         384 kbps        2.0 / 48 kHz / 384 kbps

SUBTITLES:

Codec                           Language        Bitrate         Description     
-----                           --------        -------         -----------     
Presentation Graphics           English         29.873 kbps                     
Presentation Graphics           English         23.573 kbps                     
Presentation Graphics           Chinese         15.941 kbps     

Video
ID : 1
ID in the original source medium : 4113 (0x1011)
Format : AVC
Format/Info : Advanced Video Codec
Format profile : [email protected]
Format settings : CABAC / 4 Ref Frames
Format settings, CABAC : Yes
Format settings, Reference frames : 4 frames
Codec ID : V_MPEG4/ISO/AVC
Duration : 1 h 48 min
Bit rate mode : Variable
Bit rate : 30.6 Mb/s
Maximum bit rate : 33.0 Mb/s
Width : 1 920 pixels
Height : 1 080 pixels
Display aspect ratio : 16:9
Frame rate mode : Constant
Frame rate : 24.000 FPS
Color space : YUV
Chroma subsampling : 4:2:0
Bit depth : 8 bits
Scan type : Progressive
Bits/(Pixel*Frame) : 0.616
Stream size : 23.3 GiB (84%)
Language : English
Default : No
Forced : No
Original source medium : Blu-ray

Audio #1
ID : 2
ID in the original source medium : 4354 (0x1102)
Format : DTS XLL
Format/Info : Digital Theater Systems
Commercial name : DTS-HD Master Audio
Codec ID : A_DTS
Duration : 1 h 48 min
Bit rate mode : Variable
Bit rate : 2 616 kb/s
Channel(s) : 6 channels
Channel layout : C L R Ls Rs LFE
Sampling rate : 48.0 kHz
Frame rate : 93.750 FPS (512 SPF)
Bit depth : 16 bits
Compression mode : Lossless
Stream size : 1.99 GiB (7%)
Title : DTS-HD MA 5.1
Language : Chinese
Default : Yes
Forced : No
Original source medium : Blu-ray

Audio #2
ID : 3
ID in the original source medium : 4352 (0x1100)
Format : DTS XLL
Format/Info : Digital Theater Systems
Commercial name : DTS-HD Master Audio
Codec ID : A_DTS
Duration : 1 h 48 min
Bit rate mode : Variable
Bit rate : 2 532 kb/s
Channel(s) : 6 channels
Channel layout : C L R Ls Rs LFE
Sampling rate : 48.0 kHz
Frame rate : 93.750 FPS (512 SPF)
Bit depth : 16 bits
Compression mode : Lossless
Stream size : 1.92 GiB (7%)
Title : DTS-HD MA 5.1
Language : English
Default : No
Forced : No
Original source medium : Blu-ray

Audio #3
ID : 4
ID in the original source medium : 4353 (0x1101)
Format : AC-3
Format/Info : Audio Coding 3
Commercial name : Dolby Digital
Codec ID : A_AC3
Duration : 1 h 48 min
Bit rate mode : Constant
Bit rate : 384 kb/s
Channel(s) : 2 channels
Channel layout : L R
Sampling rate : 48.0 kHz
Frame rate : 31.250 FPS (1536 SPF)
Compression mode : Lossy
Stream size : 299 MiB (1%)
Title : Stereo
Language : English
Service kind : Complete Main
Default : No
Forced : No
Original source medium : Blu-ray

Audio #4
ID : 5
ID in the original source medium : 4355 (0x1103)
Format : AC-3
Format/Info : Audio Coding 3
Commercial name : Dolby Digital
Codec ID : A_AC3
Duration : 1 h 48 min
Bit rate mode : Constant
Bit rate : 384 kb/s
Channel(s) : 2 channels
Channel layout : L R
Sampling rate : 48.0 kHz
Frame rate : 31.250 FPS (1536 SPF)
Compression mode : Lossy
Stream size : 299 MiB (1%)
Title : DD 2.0
Language : Chinese
Service kind : Complete Main
Default : No
Forced : No
Original source medium : Blu-ray

Text #1
ID : 6
Format : UTF-8
Codec ID : S_TEXT/UTF8
Codec ID/Info : UTF-8 Plain Text
Duration : 1 h 41 min
Bit rate : 38 b/s
Count of elements : 1176
Stream size : 28.4 KiB (0%)
Title : English-SRT
Language : English
Default : Yes
Forced : No

Text #2
ID : 7
Format : UTF-8
Codec ID : S_TEXT/UTF8
Codec ID/Info : UTF-8 Plain Text
Duration : 1 h 41 min
Bit rate : 37 b/s
Count of elements : 1060
Stream size : 27.9 KiB (0%)
Title : English-For-DUB-SRT
Language : English
Default : No
Forced : No

Text #3
ID : 8
Format : UTF-8
Codec ID : S_TEXT/UTF8
Codec ID/Info : UTF-8 Plain Text
Duration : 1 h 41 min
Bit rate : 47 b/s
Count of elements : 1525
Stream size : 35.4 KiB (0%)
Title : English-SDH-SRT
Language : English
Default : No
Forced : No

Text #4
ID : 9
Format : UTF-8
Codec ID : S_TEXT/UTF8
Codec ID/Info : UTF-8 Plain Text
Duration : 4 min 26 s
Bit rate : 3 b/s
Count of elements : 4
Stream size : 133 Bytes (0%)
Title : English-FORCED-SRT
Language : English
Default : No
Forced : No

Text #5
ID : 10
ID in the original source medium : 4608 (0x1200)
Format : PGS
Muxing mode : zlib
Codec ID : S_HDMV/PGS
Codec ID/Info : Picture based subtitle format used on BDs/HD-DVDs
Duration : 1 h 41 min
Bit rate : 31.9 kb/s
Count of elements : 2530
Stream size : 23.2 MiB (0%)
Title : English-PGS
Language : English
Default : No
Forced : No
Original source medium : Blu-ray

Text #6
ID : 11
ID in the original source medium : 4608 (0x1200)
Format : PGS
Muxing mode : zlib
Codec ID : S_HDMV/PGS
Codec ID/Info : Picture based subtitle format used on BDs/HD-DVDs
Duration : 4 min 26 s
Bit rate : 3 475 b/s
Count of elements : 8
Stream size : 113 KiB (0%)
Title : English-FORCED-PGS
Language : English
Default : No
Forced : No
Original source medium : Blu-ray

Text #7
ID : 12
ID in the original source medium : 4609 (0x1201)
Format : PGS
Muxing mode : zlib
Codec ID : S_HDMV/PGS
Codec ID/Info : Picture based subtitle format used on BDs/HD-DVDs
Duration : 1 h 41 min
Bit rate : 25.2 kb/s
Count of elements : 2355
Stream size : 18.3 MiB (0%)
Title : English-SDH-PGS
Language : English
Default : No
Forced : No
Original source medium : Blu-ray

Text #8
ID : 13
ID in the original source medium : 4610 (0x1202)
Format : PGS
Muxing mode : zlib
Codec ID : S_HDMV/PGS
Codec ID/Info : Picture based subtitle format used on BDs/HD-DVDs
Duration : 1 h 41 min
Bit rate : 17.0 kb/s
Count of elements : 2291
Stream size : 12.4 MiB (0%)
Title : Chinese-PGS
Language : Chinese
Default : No
Forced : No
Original source medium : Blu-ray

Menu
00:00:00.000 : en:Chapter 01
00:11:19.708 : en:Chapter 02
00:28:49.791 : en:Chapter 03
00:40:43.750 : en:Chapter 04
00:50:00.375 : en:Chapter 05
01:00:22.250 : en:Chapter 06
01:11:30.166 : en:Chapter 07
01:21:29.583 : en:Chapter 08
01:30:30.916 : en:Chapter 09
01:37:54.791 : en:Chapter 10

本帖子中包含更多资源

您需要 登录 才可以下载或查看,没有帐号?立即注册

x
回复

使用道具 举报

0

主题

134

帖子

1420

积分

金牌会员

Rank: 6Rank: 6

积分
1420
发表于 2021-2-15 10:40:38 | 显示全部楼层
谢谢楼主分享
回复

使用道具 举报

0

主题

246

帖子

1146

积分

金牌会员

Rank: 6Rank: 6

积分
1146
发表于 2021-2-15 13:24:28 | 显示全部楼层
多谢楼主分享
回复

使用道具 举报

0

主题

3

帖子

16

积分

新手上路

Rank: 1

积分
16
发表于 2021-2-15 23:01:10 | 显示全部楼层
BT很不好下载啊,不知用什么下载器呢
回复

使用道具 举报

0

主题

176

帖子

1522

积分

金牌会员

Rank: 6Rank: 6

积分
1522
发表于 2021-2-16 17:15:52 | 显示全部楼层
每个人对此片有不同的看法,我觉得还不错!就申公豹萌了点。。。
回复

使用道具 举报

0

主题

5

帖子

59

积分

注册会员

Rank: 2

积分
59
发表于 2021-2-16 19:02:20 | 显示全部楼层
多谢楼主分享
回复

使用道具 举报

5672

主题

6261

帖子

131万

积分

管理员

Rank: 18Rank: 18Rank: 18Rank: 18Rank: 18

积分
1318026
 楼主| 发表于 2021-2-16 19:04:31 | 显示全部楼层
LLYLLY 发表于 2021-2-15 23:01
BT很不好下载啊,不知用什么下载器呢

加群,充终身VIP,购买客户端软件,满带宽下载
回复

使用道具 举报

0

主题

1032

帖子

7831

积分

VIP永久

Rank: 12Rank: 12Rank: 12

积分
7831
发表于 2021-2-17 20:11:27 | 显示全部楼层
感谢楼主分享!!!
回复

使用道具 举报

0

主题

250

帖子

1380

积分

金牌会员

Rank: 6Rank: 6

积分
1380
发表于 2021-2-18 07:12:17 | 显示全部楼层
只有特定用户可以下载本站附件,什么意思
回复

使用道具 举报

0

主题

250

帖子

1380

积分

金牌会员

Rank: 6Rank: 6

积分
1380
发表于 2021-2-18 07:13:46 | 显示全部楼层
金牌会员下载不了附件吗
回复

使用道具 举报

您需要登录后才可以回帖 登录 | 立即注册

本版积分规则

QQ|Archiver|手机版|小黑屋|原盘天堂 盘盘多 点击这里给我发消息

GMT+8, 2021-2-28 21:18 , Processed in 0.058093 second(s), 25 queries .

Powered by Discuz! X3.4

Copyright © 2001-2020, Tencent Cloud.

快速回复 返回顶部 返回列表