请选择 进入手机版 | 继续访问电脑版
本站原来Q群已取消,请原Q群会员和其他未入群会员加原盘天堂新官方QQ群713428235【盘盘多】,验证信息填写您在论坛的会员名,不填会员名的无法入群哈,进群后修改您的群名片名字为您在论坛的会员名,请务必修改,否则群成员多了不知道您是哪个会员。

原盘天堂

 找回密码
 立即注册
查看: 122|回复: 7

2d蓝光原盘bdmv 地平线 英语原版 horizon.line.2020.1080p.bluray.avc.dts-hd.ma.5.1[28.47 GB]

[复制链接]

5672

主题

6261

帖子

131万

积分

管理员

Rank: 18Rank: 18Rank: 18Rank: 18Rank: 18

积分
1317976
发表于 2021-2-15 08:36:00 | 显示全部楼层 |阅读模式








地平线 Horizon Line (2020)

◎译  名 地平线/空中谜航(台)
◎片  名 Horizon Line
◎年  代 2020
◎产  地 瑞典,美国
◎类  别 惊悚 / 灾难
◎语  言 英语
◎上映日期 2020-11-06(英国)
◎IMDb评分  4.6/10 from 3248 users
◎IMDb链接  
◎豆瓣评分 5.7/10 from 461 users
◎豆瓣链接 
◎片  长 87分钟
◎导  演 米凯尔·马奇曼 Mikael Marcimain
◎编  剧 乔什·坎贝尔 Josh Campbell / 马修·斯托肯 Matthew Stuecken
◎主  演 亚历山大·德雷蒙 Alexander Dreymon
       艾莉森·威廉姆斯 Allison Williams
       凯斯·大卫 Keith David
       珀尔·麦基 Pearl Mackie
       贾马恩·亨特 Jumayn Hunter

◎标  签 灾难 | 惊悚 | 2020 | 瑞典 | 美国 | 悬疑 | 地平线 | 电影

◎简  介

  故事讲述一对情侣坐小飞机去岛屿上参加婚礼,在离开小岛时飞行员不幸突发心脏病,俩人得想办法活下来。
DISC INFO:

Disc Title:     Horizon.Line.2020.1080p.BluRay.AVC.DTS-HD.MA.5.1-FGT
Disc Size:      30,566,169,038 bytes
Protection:     AACS
Extras:         BD-Java
BDInfo:         0.7.5.9 (compatible layout created by DVDFab 12.0.1.8)

PLAYLIST REPORT:

Name:                   00800.MPLS  
Length:                 1:31:58.179 (h:m:s.ms)
Size:                   27,854,032,896 bytes
Total Bitrate:          40.38 Mbps

VIDEO:

Codec                   Bitrate             Description     
-----                   -------             -----------     
MPEG-4 AVC Video        34058 kbps          1080p / 23.976 fps / 16:9 / High Profile 4.1

AUDIO:

Codec                           Language        Bitrate         Description     
-----                           --------        -------         -----------     
DTS-HD Master Audio             English         4056 kbps       5.1 / 48 kHz / 4056 kbps / 24-bit (DTS Core: 5.1 / 48 kHz / 1509 kbps / 24-bit)
Dolby Digital Audio             English         192 kbps        2.0 / 48 kHz / 192 kbps

SUBTITLES:

Codec                           Language        Bitrate         Description     
-----                           --------        -------         -----------     
Presentation Graphics           English         29.595 kbps                     
Presentation Graphics           Spanish         20.663 kbps  

Video
ID : 1
ID in the original source medium : 4113 (0x1011)
Format : AVC
Format/Info : Advanced Video Codec
Format profile : [email protected]
Format settings : CABAC / 4 Ref Frames
Format settings, CABAC : Yes
Format settings, Reference frames : 4 frames
Codec ID : V_MPEG4/ISO/AVC
Duration : 1 h 31 min
Bit rate mode : Variable
Bit rate : 32.9 Mb/s
Maximum bit rate : 38.0 Mb/s
Width : 1 920 pixels
Height : 1 080 pixels
Display aspect ratio : 16:9
Frame rate mode : Constant
Frame rate : 23.976 (24000/1001) FPS
Color space : YUV
Chroma subsampling : 4:2:0
Bit depth : 8 bits
Scan type : Progressive
Bits/(Pixel*Frame) : 0.662
Stream size : 21.1 GiB (89%)
Language : English
Default : No
Forced : No
Original source medium : Blu-ray

Audio #1
ID : 2
ID in the original source medium : 4352 (0x1100)
Format : DTS XLL
Format/Info : Digital Theater Systems
Commercial name : DTS-HD Master Audio
Codec ID : A_DTS
Duration : 1 h 31 min
Bit rate mode : Variable
Bit rate : 4 056 kb/s
Channel(s) : 6 channels
Channel layout : C L R Ls Rs LFE
Sampling rate : 48.0 kHz
Frame rate : 93.750 FPS (512 SPF)
Bit depth : 24 bits
Compression mode : Lossless
Stream size : 2.61 GiB (11%)
Title : DTS-HD MA 5.1
Language : English
Default : Yes
Forced : No
Original source medium : Blu-ray

Audio #2
ID : 3
ID in the original source medium : 4353 (0x1101)
Format : AC-3
Format/Info : Audio Coding 3
Commercial name : Dolby Digital
Codec ID : A_AC3
Duration : 1 h 31 min
Bit rate mode : Constant
Bit rate : 192 kb/s
Channel(s) : 2 channels
Channel layout : L R
Sampling rate : 48.0 kHz
Frame rate : 31.250 FPS (1536 SPF)
Compression mode : Lossy
Stream size : 126 MiB (1%)
Title : DD 2.0
Language : English
Service kind : Complete Main
Default : No
Forced : No
Original source medium : Blu-ray

Text #1
ID : 4
Format : UTF-8
Codec ID : S_TEXT/UTF8
Codec ID/Info : UTF-8 Plain Text
Duration : 1 h 20 min
Bit rate : 41 b/s
Count of elements : 881
Stream size : 24.8 KiB (0%)
Title : English-SRT
Language : English
Default : Yes
Forced : No

Text #2
ID : 5
ID in the original source medium : 4608 (0x1200)
Format : PGS
Muxing mode : zlib
Codec ID : S_HDMV/PGS
Codec ID/Info : Picture based subtitle format used on BDs/HD-DVDs
Duration : 1 h 22 min
Bit rate : 33.1 kb/s
Count of elements : 2106
Stream size : 19.5 MiB (0%)
Title : English-PGS
Language : English
Default : No
Forced : No
Original source medium : Blu-ray

Text #3
ID : 6
ID in the original source medium : 4609 (0x1201)
Format : PGS
Muxing mode : zlib
Codec ID : S_HDMV/PGS
Codec ID/Info : Picture based subtitle format used on BDs/HD-DVDs
Duration : 1 h 30 min
Bit rate : 21.1 kb/s
Count of elements : 1730
Stream size : 13.6 MiB (0%)
Title : Spanish-PGS
Language : Spanish
Default : No
Forced : No
Original source medium : Blu-ray

Menu
00:00:00.000 : en:Chapter 01
00:05:02.719 : en:Chapter 02
00:08:35.806 : en:Chapter 03
00:12:02.638 : en:Chapter 04
00:14:43.757 : en:Chapter 05
00:17:57.117 : en:Chapter 06
00:23:35.705 : en:Chapter 07
00:29:23.720 : en:Chapter 08
00:31:57.206 : en:Chapter 09
00:38:58.919 : en:Chapter 10
00:42:30.965 : en:Chapter 11
00:48:51.511 : en:Chapter 12
00:53:58.610 : en:Chapter 13
00:58:11.237 : en:Chapter 14
01:04:53.890 : en:Chapter 15
01:08:17.510 : en:Chapter 16
01:12:32.890 : en:Chapter 17
01:15:26.730 : en:Chapter 18
01:18:28.995 : en:Chapter 19
01:23:45.145 : en:Chapter 20

本帖子中包含更多资源

您需要 登录 才可以下载或查看,没有帐号?立即注册

x
回复

使用道具 举报

0

主题

246

帖子

1146

积分

金牌会员

Rank: 6Rank: 6

积分
1146
发表于 2021-2-15 13:25:38 | 显示全部楼层
多谢楼主分享
回复

使用道具 举报

0

主题

1032

帖子

7831

积分

VIP永久

Rank: 12Rank: 12Rank: 12

积分
7831
发表于 2021-2-17 20:10:51 | 显示全部楼层
感谢楼主分享!!!
回复

使用道具 举报

0

主题

49

帖子

290

积分

VIP永久

Rank: 12Rank: 12Rank: 12

积分
290
发表于 2021-2-17 23:52:51 | 显示全部楼层

多谢楼主分享
回复

使用道具 举报

0

主题

156

帖子

1062

积分

金牌会员

Rank: 6Rank: 6

积分
1062
发表于 2021-2-20 08:30:29 | 显示全部楼层
谢谢分享,不错。
回复

使用道具 举报

0

主题

38

帖子

153

积分

注册会员

Rank: 2

积分
153
发表于 6 天前 | 显示全部楼层
谢楼主资源共享
回复

使用道具 举报

0

主题

38

帖子

153

积分

注册会员

Rank: 2

积分
153
发表于 6 天前 | 显示全部楼层
谢楼主资源共享
回复

使用道具 举报

0

主题

26

帖子

118

积分

注册会员

Rank: 2

积分
118
发表于 昨天 18:16 | 显示全部楼层
谢谢楼主分享
回复

使用道具 举报

您需要登录后才可以回帖 登录 | 立即注册

本版积分规则

QQ|Archiver|手机版|小黑屋|原盘天堂 盘盘多 点击这里给我发消息

GMT+8, 2021-2-28 20:17 , Processed in 0.058569 second(s), 25 queries .

Powered by Discuz! X3.4

Copyright © 2001-2020, Tencent Cloud.

快速回复 返回顶部 返回列表