请选择 进入手机版 | 继续访问电脑版
本站原来Q群已取消,请原Q群会员和其他未入群会员加原盘天堂新官方QQ群713428235【盘盘多】,验证信息填写您在论坛的会员名,不填会员名的无法入群哈,进群后修改您的群名片名字为您在论坛的会员名,请务必修改,否则群成员多了不知道您是哪个会员。

原盘天堂

 找回密码
 立即注册
查看: 74|回复: 2

2d蓝光原盘bdmv 恐雨 英语原版 fear.of.rain.2021.1080p.bluray.avc.dts-hd.ma.5.1[41.68 GB]

[复制链接]

5672

主题

6261

帖子

131万

积分

管理员

Rank: 18Rank: 18Rank: 18Rank: 18Rank: 18

积分
1318026
发表于 2021-2-15 08:13:24 | 显示全部楼层 |阅读模式








恐雨 Fear of Rain (2021)

◎译  名 恐雨/I Saw a Man with Yellow Eyes
◎片  名 Fear of Rain
◎年  代 2021
◎产  地 美国
◎类  别 剧情 / 惊悚 / 恐怖
◎语  言 英语
◎上映日期 2021-02-12(美国网络)
◎IMDb评分  6.4/10 from 29 users
◎IMDb链接  
◎豆瓣评分 5.7/10 from 87 users
◎豆瓣链接 
◎片  长 92分钟
◎导  演 卡斯蒂利·兰登 Castille Landon
◎编  剧 卡斯蒂利·兰登 Castille Landon
◎主  演 凯瑟琳·海格尔 Katherine Heigl
       麦迪森·伊瑟曼 Madison Iseman
       伊瑟尔·布罗萨德 Israel Broussard
       小哈里·康尼克 Harry Connick Jr.
       恩卡·奥库玛 Enuka Okuma
       欧根妮·邦杜兰特 Eugenie Bondurant
       Bianca D'Ambrosio
       杨明燊 Brian Yang
       Chiara D'Ambrosio

◎标  签 惊悚 | 2021 | 美国 | 悬疑 | 美国电影 | 恐怖 | 剧情 | 跳脱

◎简  介

  A teenage girl living with schizophrenia begins to suspect her neighbor has kidnapped a child. Her parents try desperately to help her live a normal life, without exposing their own tragic secrets, and the only person who believes her is Caleb – a boy she isn’t even sure exists.

      一个患有精神分裂症的少女开始怀疑她的邻居绑架了一个孩子。她的父母拼命地帮助她过正常的生活,而不暴露自己的悲惨秘密,而唯一相信她的人是凯勒--一个她甚至不确定存在的男孩。


DISC INFO:

Disc Title:     Fear.of.Rain.2021.1080p.BluRay.AVC.DTS-HD.MA.5.1-FGT
Disc Size:      44,753,013,582 bytes
Protection:     AACS
Extras:         BD-Java
BDInfo:         0.7.5.9 (compatible layout created by DVDFab 12.0.1.8)

PLAYLIST REPORT:

Name:                   00800.MPLS  
Length:                 1:49:01.576 (h:m:s.ms)
Size:                   34,052,542,464 bytes
Total Bitrate:          41.64 Mbps

VIDEO:

Codec                   Bitrate             Description     
-----                   -------             -----------     
MPEG-4 AVC Video        36252 kbps          1080p / 23.976 fps / 16:9 / High Profile 4.1

AUDIO:

Codec                           Language        Bitrate         Description     
-----                           --------        -------         -----------     
DTS-HD Master Audio             English         3266 kbps       5.1 / 48 kHz / 3266 kbps / 24-bit (DTS Core: 5.1 / 48 kHz / 1509 kbps / 24-bit)

SUBTITLES:

Codec                           Language        Bitrate         Description     
-----                           --------        -------         -----------     
Presentation Graphics           English         33.529 kbps                     
Presentation Graphics           Spanish         25.089 kbps                     
Presentation Graphics           English         28.239 kbps  

Video
ID : 1
ID in the original source medium : 4113 (0x1011)
Format : AVC
Format/Info : Advanced Video Codec
Format profile : [email protected]
Format settings : CABAC / 4 Ref Frames
Format settings, CABAC : Yes
Format settings, Reference frames : 4 frames
Codec ID : V_MPEG4/ISO/AVC
Duration : 1 h 49 min
Bit rate mode : Variable
Bit rate : 35.1 Mb/s
Maximum bit rate : 37.0 Mb/s
Width : 1 920 pixels
Height : 1 080 pixels
Display aspect ratio : 16:9
Frame rate mode : Constant
Frame rate : 23.976 (24000/1001) FPS
Color space : YUV
Chroma subsampling : 4:2:0
Bit depth : 8 bits
Scan type : Progressive
Bits/(Pixel*Frame) : 0.706
Stream size : 26.7 GiB (91%)
Language : English
Default : No
Forced : No
Original source medium : Blu-ray

Audio
ID : 2
ID in the original source medium : 4352 (0x1100)
Format : DTS XLL
Format/Info : Digital Theater Systems
Commercial name : DTS-HD Master Audio
Codec ID : A_DTS
Duration : 1 h 49 min
Bit rate mode : Variable
Bit rate : 3 266 kb/s
Channel(s) : 6 channels
Channel layout : C L R Ls Rs LFE
Sampling rate : 48.0 kHz
Frame rate : 93.750 FPS (512 SPF)
Bit depth : 24 bits
Compression mode : Lossless
Stream size : 2.49 GiB (8%)
Title : DTS-HD MA 5.1
Language : English
Default : Yes
Forced : No
Original source medium : Blu-ray

Text #1
ID : 3
Format : UTF-8
Codec ID : S_TEXT/UTF8
Codec ID/Info : UTF-8 Plain Text
Duration : 1 h 43 min
Bit rate : 50 b/s
Count of elements : 1215
Stream size : 38.5 KiB (0%)
Title : English-SRT
Language : English
Default : Yes
Forced : No

Text #2
ID : 4
ID in the original source medium : 4608 (0x1200)
Format : PGS
Muxing mode : zlib
Codec ID : S_HDMV/PGS
Codec ID/Info : Picture based subtitle format used on BDs/HD-DVDs
Duration : 1 h 45 min
Bit rate : 34.7 kb/s
Count of elements : 2788
Stream size : 26.1 MiB (0%)
Title : English-PGS
Language : English
Default : No
Forced : No
Original source medium : Blu-ray

Text #3
ID : 5
ID in the original source medium : 4609 (0x1201)
Format : PGS
Muxing mode : zlib
Codec ID : S_HDMV/PGS
Codec ID/Info : Picture based subtitle format used on BDs/HD-DVDs
Duration : 1 h 40 min
Bit rate : 27.1 kb/s
Count of elements : 2350
Stream size : 19.6 MiB (0%)
Title : Spanish-PGS
Language : Spanish
Default : No
Forced : No
Original source medium : Blu-ray

Text #4
ID : 6
ID in the original source medium : 4610 (0x1202)
Format : PGS
Muxing mode : zlib
Codec ID : S_HDMV/PGS
Codec ID/Info : Picture based subtitle format used on BDs/HD-DVDs
Duration : 1 h 40 min
Bit rate : 30.5 kb/s
Count of elements : 2380
Stream size : 22.0 MiB (0%)
Title : English-PGS
Language : English
Default : No
Forced : No
Original source medium : Blu-ray

Menu
00:00:00.000 : en:Chapter 01
00:05:26.200 : en:Chapter 02
00:12:52.813 : en:Chapter 03
00:18:18.514 : en:Chapter 04
00:25:00.540 : en:Chapter 05
00:30:33.456 : en:Chapter 06
00:37:22.073 : en:Chapter 07
00:44:46.100 : en:Chapter 08
00:53:12.731 : en:Chapter 09
00:58:59.827 : en:Chapter 10
01:05:07.445 : en:Chapter 11
01:12:19.835 : en:Chapter 12
01:18:57.441 : en:Chapter 13
01:24:32.233 : en:Chapter 14
01:29:01.627 : en:Chapter 15
01:40:44.663 : en:Chapter 16

本帖子中包含更多资源

您需要 登录 才可以下载或查看,没有帐号?立即注册

x
回复

使用道具 举报

0

主题

246

帖子

1146

积分

金牌会员

Rank: 6Rank: 6

积分
1146
发表于 2021-2-15 13:26:21 | 显示全部楼层
多谢楼主分享
回复

使用道具 举报

0

主题

1032

帖子

7831

积分

VIP永久

Rank: 12Rank: 12Rank: 12

积分
7831
发表于 2021-2-17 20:10:12 | 显示全部楼层
感谢楼主分享!!!
回复

使用道具 举报

您需要登录后才可以回帖 登录 | 立即注册

本版积分规则

QQ|Archiver|手机版|小黑屋|原盘天堂 盘盘多 点击这里给我发消息

GMT+8, 2021-2-28 21:11 , Processed in 0.053276 second(s), 25 queries .

Powered by Discuz! X3.4

Copyright © 2001-2020, Tencent Cloud.

快速回复 返回顶部 返回列表