请选择 进入手机版 | 继续访问电脑版
本站原来Q群已取消,请原Q群会员和其他未入群会员加原盘天堂新官方QQ群713428235【盘盘多】,验证信息填写您在论坛的会员名,不填会员名的无法入群哈,进群后修改您的群名片名字为您在论坛的会员名,请务必修改,否则群成员多了不知道您是哪个会员。

原盘天堂

 找回密码
 立即注册
查看: 134|回复: 8

2d蓝光原盘bdmv 寄生异形 英语原版 sputnik.2020.russian.1080p.us.bluray.avc.dts-hd.ma.5.1[33.14 GB]

[复制链接]

5672

主题

6261

帖子

131万

积分

管理员

Rank: 18Rank: 18Rank: 18Rank: 18Rank: 18

积分
1318026
发表于 2021-2-9 22:34:37 | 显示全部楼层 |阅读模式








寄生异形 Спутник (2020)

导演: 艾戈尔·阿布拉门科
编剧: 奥列格·马洛维奇克 / Andrei Zolotarev
主演: 奥莎娜·阿金什那 / 费奥多尔·邦达尔丘克 / 彼得·费奥多罗夫 / 安东·瓦西利耶夫 / 阿列克谢·杰米多夫 / 更多...
类型: 科幻 / 恐怖
制片国家/地区: 俄罗斯
语言: 俄语
上映日期: 2020-04-15(翠贝卡电影节) / 2020-04-23(俄罗斯)
片长: 105分钟
又名: 人造卫星 / 卫星 / Sputnik / Satellite

豆瓣评分 引用
5.9
4671人评价
5星 4.6%
4星 15.6%
3星 54.6%
2星 21.8%
1星 3.4%
好于 30% 科幻片
好于 46% 恐怖片

剧情简介 · · · · · ·
  年轻女医生Tatiana Yurievna(奥莎娜·阿金什那 Oksana Akinshina 饰)因为使用具争议的技术而差点被吊销医师执照。但她被军方招募来到一个机密的研究机构,协助研究一个特别的案例,太空人Konstantin Sergeyevich(彼得·费奥多罗 夫 Pyotr Fyodorov 饰)。这位太空人历经神秘的太空意外后幸存返回地球,体内却多了外星生物,而且这个神秘生物只在深夜时现身。军方想拥有这个外星生物进行邪恶的计划,但女医生只想阻止外星生物杀害太空人。

寄生异形 Спутник 获奖情况
第4届平遥国际电影展  (2020)
首映单元最受欢迎影片(提名) 艾戈尔·阿布拉门科

DISC INFO:

Disc Title:     Sputnik.2020.RUSSIAN.1080p.BluRay.AVC.DTS-HD.MA.5.1-FGT
Disc Size:      35,580,594,463 bytes
Protection:     AACS
Extras:         BD-Java
BDInfo:         0.7.5.9 (compatible layout created by DVDFab 12.0.1.8)

PLAYLIST REPORT:

Name:                   01002.MPLS  
Length:                 1:54:05.046 (h:m:s.ms)
Size:                   33,690,335,232 bytes
Total Bitrate:          39.37 Mbps

VIDEO:

Codec                   Bitrate             Description     
-----                   -------             -----------     
MPEG-4 AVC Video        27984 kbps          1080p / 23.976 fps / 16:9 / High Profile 4.1

AUDIO:

Codec                           Language        Bitrate         Description     
-----                           --------        -------         -----------     
DTS-HD Master Audio             English         1645 kbps       2.0 / 48 kHz / 1645 kbps / 24-bit (DTS Core: 2.0 / 48 kHz / 1509 kbps / 24-bit)
DTS-HD Master Audio             English         3090 kbps       5.1 / 48 kHz / 3090 kbps / 24-bit (DTS Core: 5.1 / 48 kHz / 1509 kbps / 24-bit)
DTS-HD Master Audio             Russian         2305 kbps       5.1 / 48 kHz / 2305 kbps / 24-bit (DTS Core: 5.1 / 48 kHz / 1509 kbps / 24-bit)
DTS-HD Master Audio             English         1649 kbps       2.0 / 48 kHz / 1649 kbps / 24-bit (DTS Core: 2.0 / 48 kHz / 1509 kbps / 24-bit)

SUBTITLES:

Codec                           Language        Bitrate         Description     
-----                           --------        -------         -----------     
Presentation Graphics           English         29.569 kbps                     
Presentation Graphics           English         1.113 kbps                     
Presentation Graphics           English         21.347 kbps   

Video
ID : 1
ID in the original source medium : 4113 (0x1011)
Format : AVC
Format/Info : Advanced Video Codec
Format profile : [email protected]
Format settings : CABAC / 4 Ref Frames
Format settings, CABAC : Yes
Format settings, Reference frames : 4 frames
Codec ID : V_MPEG4/ISO/AVC
Duration : 1 h 54 min
Bit rate mode : Variable
Bit rate : 27.9 Mb/s
Maximum bit rate : 32.0 Mb/s
Width : 1 920 pixels
Height : 1 080 pixels
Display aspect ratio : 16:9
Frame rate mode : Constant
Frame rate : 23.976 (24000/1001) FPS
Color space : YUV
Chroma subsampling : 4:2:0
Bit depth : 8 bits
Scan type : Progressive
Bits/(Pixel*Frame) : 0.561
Stream size : 22.2 GiB (76%)
Language : English
Default : No
Forced : No
Original source medium : Blu-ray

Audio #1
ID : 2
ID in the original source medium : 4354 (0x1102)
Format : DTS XLL
Format/Info : Digital Theater Systems
Commercial name : DTS-HD Master Audio
Codec ID : A_DTS
Duration : 1 h 54 min
Bit rate mode : Variable
Bit rate : 2 305 kb/s
Channel(s) : 6 channels
Channel layout : C L R Ls Rs LFE
Sampling rate : 48.0 kHz
Frame rate : 93.750 FPS (512 SPF)
Bit depth : 24 bits
Compression mode : Lossless
Stream size : 1.84 GiB (6%)
Title : DTS-HD MA 5.1
Language : Russian
Default : Yes
Forced : No
Original source medium : Blu-ray

Audio #2
ID : 3
ID in the original source medium : 4353 (0x1101)
Format : DTS XLL
Format/Info : Digital Theater Systems
Commercial name : DTS-HD Master Audio
Codec ID : A_DTS
Duration : 1 h 54 min
Bit rate mode : Variable
Bit rate : 3 090 kb/s
Channel(s) : 6 channels
Channel layout : C L R Ls Rs LFE
Sampling rate : 48.0 kHz
Frame rate : 93.750 FPS (512 SPF)
Bit depth : 24 bits
Compression mode : Lossless
Stream size : 2.46 GiB (8%)
Title : DTS-HD MA 5.1
Language : English
Default : No
Forced : No
Original source medium : Blu-ray

Audio #3
ID : 4
ID in the original source medium : 4352 (0x1100)
Format : DTS XLL
Format/Info : Digital Theater Systems
Commercial name : DTS-HD Master Audio
Codec ID : A_DTS
Duration : 1 h 54 min
Bit rate mode : Variable
Bit rate : 1 645 kb/s
Channel(s) : 2 channels
Channel layout : L R
Sampling rate : 48.0 kHz
Frame rate : 93.750 FPS (512 SPF)
Bit depth : 24 bits
Compression mode : Lossless
Stream size : 1.31 GiB (4%)
Title : DTS-HD MA 2.0
Language : English
Default : No
Forced : No
Original source medium : Blu-ray

Audio #4
ID : 5
ID in the original source medium : 4355 (0x1103)
Format : DTS XLL
Format/Info : Digital Theater Systems
Commercial name : DTS-HD Master Audio
Codec ID : A_DTS
Duration : 1 h 54 min
Bit rate mode : Variable
Bit rate : 1 649 kb/s
Channel(s) : 2 channels
Channel layout : L R
Sampling rate : 48.0 kHz
Frame rate : 93.750 FPS (512 SPF)
Bit depth : 24 bits
Compression mode : Lossless
Stream size : 1.31 GiB (5%)
Title : DTS-HD MA 2.0
Language : English
Default : No
Forced : No
Original source medium : Blu-ray

Text #1
ID : 6
Format : UTF-8
Codec ID : S_TEXT/UTF8
Codec ID/Info : UTF-8 Plain Text
Duration : 1 h 47 min
Bit rate : 40 b/s
Count of elements : 1130
Stream size : 31.8 KiB (0%)
Title : English-SRT
Language : English
Default : Yes
Forced : No

Text #2
ID : 7
ID in the original source medium : 4608 (0x1200)
Format : PGS
Muxing mode : zlib
Codec ID : S_HDMV/PGS
Codec ID/Info : Picture based subtitle format used on BDs/HD-DVDs
Duration : 1 h 51 min
Bit rate : 30.3 kb/s
Count of elements : 2192
Stream size : 24.1 MiB (0%)
Title : English-SDH-PGS
Language : English
Default : No
Forced : No
Original source medium : Blu-ray

Text #3
ID : 8
ID in the original source medium : 4609 (0x1201)
Format : PGS
Muxing mode : zlib
Codec ID : S_HDMV/PGS
Codec ID/Info : Picture based subtitle format used on BDs/HD-DVDs
Duration : 1 h 47 min
Bit rate : 1 180 b/s
Count of elements : 94
Stream size : 930 KiB (0%)
Title : English-FORCED-PGS
Language : English
Default : No
Forced : No
Original source medium : Blu-ray

Text #4
ID : 9
ID in the original source medium : 4610 (0x1202)
Format : PGS
Muxing mode : zlib
Codec ID : S_HDMV/PGS
Codec ID/Info : Picture based subtitle format used on BDs/HD-DVDs
Duration : 1 h 47 min
Bit rate : 22.6 kb/s
Count of elements : 1834
Stream size : 17.4 MiB (0%)
Title : English-PGS
Language : English
Default : No
Forced : No
Original source medium : Blu-ray

Menu
00:00:00.000 : en:Chapter 01
00:08:10.531 : en:Chapter 02
00:15:43.984 : en:Chapter 03
00:24:06.736 : en:Chapter 04
00:36:38.196 : en:Chapter 05
00:49:19.748 : en:Chapter 06
01:00:02.181 : en:Chapter 07
01:09:45.389 : en:Chapter 08
01:17:01.408 : en:Chapter 09
01:27:32.705 : en:Chapter 10
01:35:40.234 : en:Chapter 11
01:44:49.491 : en:Chapter 12
01:54:04.128 : en:Chapter 13

本帖子中包含更多资源

您需要 登录 才可以下载或查看,没有帐号?立即注册

x
回复

使用道具 举报

0

主题

1032

帖子

7831

积分

VIP永久

Rank: 12Rank: 12Rank: 12

积分
7831
发表于 2021-2-10 09:48:22 | 显示全部楼层

感谢楼主分享!!!
回复

使用道具 举报

0

主题

246

帖子

1146

积分

金牌会员

Rank: 6Rank: 6

积分
1146
发表于 2021-2-10 15:03:56 | 显示全部楼层
感谢楼主分享 希望楼主多分享好的资源 感谢
回复

使用道具 举报

0

主题

18

帖子

102

积分

注册会员

Rank: 2

积分
102
发表于 2021-2-10 17:04:27 | 显示全部楼层
  感谢楼主分享!!!
回复

使用道具 举报

0

主题

246

帖子

1146

积分

金牌会员

Rank: 6Rank: 6

积分
1146
发表于 2021-2-11 16:03:22 | 显示全部楼层
谢谢楼主分享优秀资源
回复

使用道具 举报

0

主题

1125

帖子

4813

积分

论坛元老

Rank: 8Rank: 8

积分
4813
发表于 2021-2-12 20:16:22 | 显示全部楼层
感谢楼主分享高清影片
回复

使用道具 举报

0

主题

246

帖子

1146

积分

金牌会员

Rank: 6Rank: 6

积分
1146
发表于 2021-2-13 09:47:25 | 显示全部楼层
多谢楼主分享优秀资源
回复

使用道具 举报

0

主题

246

帖子

1146

积分

金牌会员

Rank: 6Rank: 6

积分
1146
发表于 2021-2-14 18:40:34 | 显示全部楼层
谢谢楼主分享
回复

使用道具 举报

0

主题

22

帖子

167

积分

注册会员

Rank: 2

积分
167
发表于 2021-2-16 16:11:36 | 显示全部楼层
感谢楼主分享!!
回复

使用道具 举报

您需要登录后才可以回帖 登录 | 立即注册

本版积分规则

QQ|Archiver|手机版|小黑屋|原盘天堂 盘盘多 点击这里给我发消息

GMT+8, 2021-2-28 21:23 , Processed in 0.059623 second(s), 25 queries .

Powered by Discuz! X3.4

Copyright © 2001-2020, Tencent Cloud.

快速回复 返回顶部 返回列表