请选择 进入手机版 | 继续访问电脑版
本站原来Q群已取消,请原Q群会员和其他未入群会员加原盘天堂新官方QQ群713428235【盘盘多】,验证信息填写您在论坛的会员名,不填会员名的无法入群哈,进群后修改您的群名片名字为您在论坛的会员名,请务必修改,否则群成员多了不知道您是哪个会员。

原盘天堂

 找回密码
 立即注册
查看: 66|回复: 4

2d蓝光原盘bdmv 夺魂连线 英语原版 host.2020.1080p.bluray.avc.dts-hd.ma.2.0[42.97 GB]

[复制链接]

5672

主题

6261

帖子

131万

积分

管理员

Rank: 18Rank: 18Rank: 18Rank: 18Rank: 18

积分
1317976
发表于 2021-2-9 22:17:13 | 显示全部楼层 |阅读模式






夺魂连线 Host (2020)

导演: 罗布·萨维奇
编剧: 杰玛·赫莉 / 罗布·萨维奇 / 杰德·谢帕德
主演: 海莉·毕晓普 / 杰玛·摩尔 / 艾玛·路易斯·韦伯 / 拉迪娜·德兰多娃 / 卡罗琳·沃德 / 更多...
类型: 恐怖
制片国家/地区: 英国
语言: 英语
上映日期: 2020-07-30(美国)
片长: 56分钟
又名: 宿主 / 60分鐘招魂直播(港)

豆瓣评分
6.3
5505人评价
5星 5.9%
4星 23.4%
3星 51.8%
2星 15.5%
1星 3.4%
好于 60% 恐怖片

剧情简介 · · · · · ·
  六名好友在居家隔离期找了一位灵媒,想要通过Zoom进行降灵仪式。然而事情的发展远超他们的想象,一个恶灵似乎回应了他们的召唤,并且侵入了每个人的家中……

夺魂连线 Host 获奖情况
第23届英国独立电影奖  (2020)
制片突破(提名)
最佳剪辑(提名)
最佳音效(提名)

DISC INFO:

Disc Title:     Host.2020.1080p.BluRay.AVC.DTS-HD.MA.2.0-FGT
Disc Size:      46,141,340,563 bytes
Protection:     AACS
BDInfo:         0.7.5.9 (compatible layout created by DVDFab 12.0.1.8)

PLAYLIST REPORT:

Name:                   00020.MPLS  
Length:                 1:07:57.490 (h:m:s.ms)
Size:                   16,025,505,792 bytes
Total Bitrate:          31.44 Mbps

VIDEO:

Codec                   Bitrate             Description     
-----                   -------             -----------     
MPEG-4 AVC Video        27970 kbps          1080p / 23.976 fps / 16:9 / High Profile 4.1

AUDIO:

Codec                           Language        Bitrate         Description     
-----                           --------        -------         -----------     
DTS-HD Master Audio             English         1837 kbps       2.0 / 48 kHz / 1837 kbps / 24-bit (DTS Core: 2.0 / 48 kHz / 1509 kbps / 24-bit)

SUBTITLES:

Codec                           Language        Bitrate         Description     
-----                           --------        -------         -----------     
Presentation Graphics           English         29.242 kbps   

Video
ID : 1
ID in the original source medium : 4113 (0x1011)
Format : AVC
Format/Info : Advanced Video Codec
Format profile : [email protected]
Format settings : CABAC / 4 Ref Frames
Format settings, CABAC : Yes
Format settings, Reference frames : 4 frames
Codec ID : V_MPEG4/ISO/AVC
Duration : 1 h 7 min
Bit rate mode : Variable
Bit rate : 27.7 Mb/s
Maximum bit rate : 36.0 Mb/s
Width : 1 920 pixels
Height : 1 080 pixels
Display aspect ratio : 16:9
Frame rate mode : Constant
Frame rate : 23.976 (24000/1001) FPS
Color space : YUV
Chroma subsampling : 4:2:0
Bit depth : 8 bits
Scan type : Progressive
Bits/(Pixel*Frame) : 0.556
Stream size : 13.1 GiB (94%)
Language : English
Default : No
Forced : No
Original source medium : Blu-ray

Audio
ID : 2
ID in the original source medium : 4352 (0x1100)
Format : DTS XLL
Format/Info : Digital Theater Systems
Commercial name : DTS-HD Master Audio
Codec ID : A_DTS
Duration : 1 h 7 min
Bit rate mode : Variable
Bit rate : 1 837 kb/s
Channel(s) : 2 channels
Channel layout : L R
Sampling rate : 48.0 kHz
Frame rate : 93.750 FPS (512 SPF)
Bit depth : 24 bits
Compression mode : Lossless
Stream size : 893 MiB (6%)
Title : DTS-HD MA 2.0
Language : English
Default : Yes
Forced : No
Original source medium : Blu-ray

Text #1
ID : 3
Format : UTF-8
Codec ID : S_TEXT/UTF8
Codec ID/Info : UTF-8 Plain Text
Duration : 1 h 5 min
Bit rate : 66 b/s
Count of elements : 1077
Stream size : 31.9 KiB (0%)
Title : English-SRT
Language : English
Default : Yes
Forced : No

Text #2
ID : 4
ID in the original source medium : 4608 (0x1200)
Format : PGS
Muxing mode : zlib
Codec ID : S_HDMV/PGS
Codec ID/Info : Picture based subtitle format used on BDs/HD-DVDs
Duration : 1 h 7 min
Bit rate : 29.5 kb/s
Count of elements : 2365
Stream size : 14.2 MiB (0%)
Title : English-PGS
Language : English
Default : No
Forced : No
Original source medium : Blu-ray

Menu
00:00:00.000 : en:Chapter 01
00:12:16.819 : en:Chapter 02
00:24:43.023 : en:Chapter 03
00:37:40.633 : en:Chapter 04
00:45:36.650 : en:Chapter 05
01:07:29.462 : en:Chapter 06

本帖子中包含更多资源

您需要 登录 才可以下载或查看,没有帐号?立即注册

x
回复

使用道具 举报

0

主题

1032

帖子

7831

积分

VIP永久

Rank: 12Rank: 12Rank: 12

积分
7831
发表于 2021-2-10 09:47:52 | 显示全部楼层

感谢楼主分享!!!
回复

使用道具 举报

0

主题

246

帖子

1146

积分

金牌会员

Rank: 6Rank: 6

积分
1146
发表于 2021-2-10 15:04:39 | 显示全部楼层
希望楼主多分享好的资源  再次感谢
回复

使用道具 举报

0

主题

246

帖子

1146

积分

金牌会员

Rank: 6Rank: 6

积分
1146
发表于 2021-2-11 16:00:09 | 显示全部楼层
谢谢楼主分享优秀资源
回复

使用道具 举报

0

主题

1125

帖子

4813

积分

论坛元老

Rank: 8Rank: 8

积分
4813
发表于 2021-2-12 20:19:36 | 显示全部楼层
感谢楼主分享高清影片
回复

使用道具 举报

您需要登录后才可以回帖 登录 | 立即注册

本版积分规则

QQ|Archiver|手机版|小黑屋|原盘天堂 盘盘多 点击这里给我发消息

GMT+8, 2021-2-28 20:22 , Processed in 0.064831 second(s), 25 queries .

Powered by Discuz! X3.4

Copyright © 2001-2020, Tencent Cloud.

快速回复 返回顶部 返回列表