请选择 进入手机版 | 继续访问电脑版
本站原来Q群已取消,请原Q群会员和其他未入群会员加原盘天堂新官方QQ群713428235【盘盘多】,验证信息填写您在论坛的会员名,不填会员名的无法入群哈,进群后修改您的群名片名字为您在论坛的会员名,请务必修改,否则群成员多了不知道您是哪个会员。

原盘天堂

 找回密码
 立即注册
查看: 78|回复: 6

2d蓝光原盘bdmv 云中阴影 英语原版 shadow.in.the.cloud.2020.1080p.bluray.avc.dts-hd.ma.5.1[20.76 GB]

[复制链接]

5672

主题

6261

帖子

131万

积分

管理员

Rank: 18Rank: 18Rank: 18Rank: 18Rank: 18

积分
1318026
发表于 2021-2-9 21:59:35 | 显示全部楼层 |阅读模式








云中阴影 Shadow In The Cloud (2020)

导演: 罗丝安妮·梁
编剧: 马克斯·兰迪斯 / 罗丝安妮·梁
主演: 科洛·莫瑞兹 / 尼克·罗宾森 / 比尤拉·寇尔 / 泰勒·约翰·史密斯 / 卡兰·马尔韦 / 更多...
类型: 动作 / 恐怖
制片国家/地区: 新西兰 / 美国
语言: 英语
上映日期: 2020-09-12(多伦多电影节) / 2021-01-01(美国)
片长: 83分钟
又名: 致命天际线(台) / 云中的阴影

豆瓣评分
5.1
1871人评价
5星 4.0%
4星 10.2%
3星 38.5%
2星 32.5%
1星 14.8%
好于 10% 动作片
好于 20% 恐怖片

剧情简介 · · · · · ·
  科洛·莫瑞兹将出演动作恐怖新片[云中阴影](Shadow In The Cloud,暂译)。本片由罗丝安妮·梁执导,马克斯·兰迪斯([超能失控])撰写剧本。莫瑞兹扮演一名携带绝密文件的上尉,她登上B-17轰炸机与迎面而来的日本伏击以及全男性的机组人员作斗争。

云中阴影 Shadow In The Cloud 获奖情况
第45届多伦多国际电影节  (2020)
观众选择奖 午夜疯狂单元

DISC INFO:

Disc Title:     Shadow.in.the.Cloud.2020.COMPLETE.BLURAY-SHITHORROR
Disc Size:      22,286,686,966 bytes
Protection:     AACS
BDInfo:         0.7.5.9 (compatible layout created by DVDFab 12.0.1.8)

PLAYLIST REPORT:

Name:                   00000.MPLS  
Length:                 1:23:23.373 (h:m:s.ms)
Size:                   20,919,785,472 bytes
Total Bitrate:          33.45 Mbps

VIDEO:

Codec                   Bitrate             Description     
-----                   -------             -----------     
MPEG-4 AVC Video        27982 kbps          1080p / 23.976 fps / 16:9 / High Profile 4.1

AUDIO:

Codec                           Language        Bitrate         Description     
-----                           --------        -------         -----------     
DTS-HD Master Audio             English         1956 kbps       5.1 / 48 kHz / 1956 kbps / 16-bit (DTS Core: 5.1 / 48 kHz / 1509 kbps / 16-bit)
LPCM Audio                      English         1536 kbps       2.0 / 48 kHz / 1536 kbps / 16-bit

SUBTITLES:

Codec                           Language        Bitrate         Description     
-----                           --------        -------         -----------     
Presentation Graphics           English         47.338 kbps     


Video
ID : 1
ID in the original source medium : 4113 (0x1011)
Format : AVC
Format/Info : Advanced Video Codec
Format profile : [email protected]
Format settings : CABAC / 3 Ref Frames
Format settings, CABAC : Yes
Format settings, Reference frames : 3 frames
Codec ID : V_MPEG4/ISO/AVC
Duration : 1 h 23 min
Bit rate mode : Variable
Bit rate : 28.0 Mb/s
Maximum bit rate : 35.0 Mb/s
Width : 1 920 pixels
Height : 1 080 pixels
Display aspect ratio : 16:9
Frame rate mode : Constant
Frame rate : 23.976 (24000/1001) FPS
Standard : NTSC
Color space : YUV
Chroma subsampling : 4:2:0
Bit depth : 8 bits
Scan type : Progressive
Bits/(Pixel*Frame) : 0.563
Stream size : 16.3 GiB (89%)
Language : English
Default : No
Forced : No
Color range : Limited
Color primaries : BT.709
Transfer characteristics : BT.709
Matrix coefficients : BT.709
Original source medium : Blu-ray

Audio #1
ID : 2
ID in the original source medium : 4352 (0x1100)
Format : DTS XLL
Format/Info : Digital Theater Systems
Commercial name : DTS-HD Master Audio
Codec ID : A_DTS
Duration : 1 h 23 min
Bit rate mode : Variable
Bit rate : 1 956 kb/s
Channel(s) : 6 channels
Channel layout : C L R Ls Rs LFE
Sampling rate : 48.0 kHz
Frame rate : 93.750 FPS (512 SPF)
Bit depth : 16 bits
Compression mode : Lossless
Stream size : 1.14 GiB (6%)
Title : DTS-HD MA 5.1
Language : English
Default : Yes
Forced : No
Original source medium : Blu-ray

Audio #2
ID : 3
ID in the original source medium : 4353 (0x1101)
Format : PCM
Format settings : Little / Signed
Codec ID : A_PCM/INT/LIT
Duration : 1 h 23 min
Bit rate mode : Constant
Bit rate : 1 536 kb/s
Channel(s) : 2 channels
Sampling rate : 48.0 kHz
Frame rate : 30.000 FPS (1600 SPF)
Bit depth : 16 bits
Stream size : 916 MiB (5%)
Title : LPCM 2.0
Language : English
Default : No
Forced : No
Original source medium : Blu-ray

Text #1
ID : 4
Format : UTF-8
Codec ID : S_TEXT/UTF8
Codec ID/Info : UTF-8 Plain Text
Duration : 1 h 16 min
Bit rate : 71 b/s
Count of elements : 1097
Stream size : 40.0 KiB (0%)
Title : English-SRT
Language : English
Default : Yes
Forced : No

Text #2
ID : 5
ID in the original source medium : 4608 (0x1200)
Format : PGS
Muxing mode : zlib
Codec ID : S_HDMV/PGS
Codec ID/Info : Picture based subtitle format used on BDs/HD-DVDs
Duration : 1 h 16 min
Bit rate : 51.3 kb/s
Count of elements : 3270
Stream size : 28.2 MiB (0%)
Title : English-PGS
Language : English
Default : No
Forced : No
Original source medium : Blu-ray

Menu
00:00:00.000 : en:Chapter 01
00:17:03.605 : en:Chapter 02
00:33:19.831 : en:Chapter 03
00:50:06.545 : en:Chapter 04
01:03:30.515 : en:Chapter 05
01:14:45.022 : en:Chapter 06

本帖子中包含更多资源

您需要 登录 才可以下载或查看,没有帐号?立即注册

x
回复

使用道具 举报

0

主题

1032

帖子

7831

积分

VIP永久

Rank: 12Rank: 12Rank: 12

积分
7831
发表于 2021-2-10 09:46:41 | 显示全部楼层
感谢楼主分享!!!
回复

使用道具 举报

0

主题

114

帖子

735

积分

高级会员

Rank: 4

积分
735
发表于 2021-2-10 12:29:52 | 显示全部楼层
感谢楼主分享!!!
回复

使用道具 举报

0

主题

246

帖子

1146

积分

金牌会员

Rank: 6Rank: 6

积分
1146
发表于 2021-2-10 15:06:52 | 显示全部楼层
感谢楼主分享 希望楼主多分享好的资源  再次感谢
回复

使用道具 举报

0

主题

1125

帖子

4813

积分

论坛元老

Rank: 8Rank: 8

积分
4813
发表于 2021-2-12 20:21:29 | 显示全部楼层
感谢楼主分享高清影片
回复

使用道具 举报

0

主题

63

帖子

365

积分

中级会员

Rank: 3Rank: 3

积分
365
发表于 2021-2-15 20:18:55 | 显示全部楼层
感谢楼主分享高清影片
回复

使用道具 举报

0

主题

39

帖子

163

积分

注册会员

Rank: 2

积分
163
发表于 5 天前 | 显示全部楼层
感谢楼主分享
回复

使用道具 举报

您需要登录后才可以回帖 登录 | 立即注册

本版积分规则

QQ|Archiver|手机版|小黑屋|原盘天堂 盘盘多 点击这里给我发消息

GMT+8, 2021-2-28 21:16 , Processed in 0.057993 second(s), 25 queries .

Powered by Discuz! X3.4

Copyright © 2001-2020, Tencent Cloud.

快速回复 返回顶部 返回列表