请选择 进入手机版 | 继续访问电脑版
本站原来Q群已取消,请原Q群会员和其他未入群会员加原盘天堂新官方QQ群713428235【盘盘多】,验证信息填写您在论坛的会员名,不填会员名的无法入群哈,进群后修改您的群名片名字为您在论坛的会员名,请务必修改,否则群成员多了不知道您是哪个会员。

原盘天堂

 找回密码
 立即注册
查看: 113|回复: 8

2d蓝光原盘bdmv 异星危机 英语原版 breach.2020.1080p.bluray.avc.dts-hd.ma.5.1[21.91 GB]

[复制链接]

5672

主题

6261

帖子

131万

积分

管理员

Rank: 18Rank: 18Rank: 18Rank: 18Rank: 18

积分
1317976
发表于 2021-2-9 21:32:23 | 显示全部楼层 |阅读模式








异星危机 Breach (2020)

导演: 约翰·修茨
编剧: Edward Drake / 科里·拉奇
主演: 科迪·基尔斯利 / 布鲁斯·威利斯 / 瑞秋·尼科尔斯 / Kassandra Clementi / 约翰尼·梅辛纳 / 更多...
类型: 动作 / 科幻
制片国家/地区: 加拿大
语言: 英语
上映日期: 2020-12-18(美国)
片长: 92分钟
又名: 异种猎杀(台) / Anti-life

豆瓣评分
3.4
773人评价
5星 1.3%
4星 2.1%
3星 11.5%
2星 34.3%
1星 50.9%
好于 2% 科幻片

剧情简介 · · · · · ·
  故事讲述地球遭遇毁灭性瘟疫,一艘星际方舟载着人类逃离,却受到了新的威胁攻击——一种变形的外星力量出现要灭绝人类!

DISC INFO:

Disc Title:     Breach.2020.COMPLETE.BLURAY-BRUCEWILLIS
Disc Size:      23,517,125,324 bytes
Protection:     AACS
Extras:         BD-Java
BDInfo:         0.7.5.9 (compatible layout created by DVDFab 12.0.1.8)

PLAYLIST REPORT:

Name:                   00001.MPLS  
Length:                 1:32:32.129 (h:m:s.ms)
Size:                   22,595,616,768 bytes
Total Bitrate:          32.56 Mbps

VIDEO:

Codec                   Bitrate             Description     
-----                   -------             -----------     
MPEG-4 AVC Video        27000 kbps          1080p / 23.976 fps / 16:9 / High Profile 4.1

AUDIO:

Codec                           Language        Bitrate         Description     
-----                           --------        -------         -----------     
DTS-HD Master Audio             English         3773 kbps       5.1 / 48 kHz / 3773 kbps / 24-bit (DTS Core: 5.1 / 48 kHz / 1509 kbps / 24-bit)

SUBTITLES:

Codec                           Language        Bitrate         Description     
-----                           --------        -------         -----------     
Presentation Graphics           English         28.327 kbps                     
Presentation Graphics           English         35.468 kbps                     
Presentation Graphics           Spanish         26.389 kbps                     
Presentation Graphics           French          29.987 kbps  

Video
ID : 1
ID in the original source medium : 4113 (0x1011)
Format : AVC
Format/Info : Advanced Video Codec
Format profile : [email protected]
Format settings : CABAC / 4 Ref Frames
Format settings, CABAC : Yes
Format settings, Reference frames : 4 frames
Format settings, GOP : M=3, N=12
Codec ID : V_MPEG4/ISO/AVC
Duration : 1 h 32 min
Bit rate mode : Variable
Bit rate : 26.7 Mb/s
Maximum bit rate : 38.0 Mb/s
Width : 1 920 pixels
Height : 1 080 pixels
Display aspect ratio : 16:9
Frame rate mode : Constant
Frame rate : 23.976 (24000/1001) FPS
Color space : YUV
Chroma subsampling : 4:2:0
Bit depth : 8 bits
Scan type : Progressive
Bits/(Pixel*Frame) : 0.538
Stream size : 17.3 GiB (87%)
Language : English
Default : No
Forced : No
Original source medium : Blu-ray

Audio
ID : 2
ID in the original source medium : 4352 (0x1100)
Format : DTS XLL
Format/Info : Digital Theater Systems
Commercial name : DTS-HD Master Audio
Codec ID : A_DTS
Duration : 1 h 32 min
Bit rate mode : Variable
Bit rate : 3 773 kb/s
Channel(s) : 6 channels
Channel layout : C L R Ls Rs LFE
Sampling rate : 48.0 kHz
Frame rate : 93.750 FPS (512 SPF)
Bit depth : 24 bits
Compression mode : Lossless
Stream size : 2.44 GiB (12%)
Title : DTS-HD MA 5.1
Language : English
Default : Yes
Forced : No
Original source medium : Blu-ray

Text #1
ID : 3
Format : UTF-8
Codec ID : S_TEXT/UTF8
Codec ID/Info : UTF-8 Plain Text
Duration : 1 h 28 min
Bit rate : 41 b/s
Count of elements : 959
Stream size : 27.1 KiB (0%)
Title : English-SRT
Language : English
Default : Yes
Forced : No

Text #2
ID : 4
ID in the original source medium : 4608 (0x1200)
Format : PGS
Muxing mode : zlib
Codec ID : S_HDMV/PGS
Codec ID/Info : Picture based subtitle format used on BDs/HD-DVDs
Duration : 1 h 28 min
Bit rate : 29.6 kb/s
Count of elements : 1922
Stream size : 18.7 MiB (0%)
Title : English-PGS
Language : English
Default : No
Forced : No
Original source medium : Blu-ray

Text #3
ID : 5
ID in the original source medium : 4609 (0x1201)
Format : PGS
Muxing mode : zlib
Codec ID : S_HDMV/PGS
Codec ID/Info : Picture based subtitle format used on BDs/HD-DVDs
Duration : 1 h 28 min
Bit rate : 37.0 kb/s
Count of elements : 2633
Stream size : 23.5 MiB (0%)
Title : English-SDH-PGS
Language : English
Default : No
Forced : No
Original source medium : Blu-ray

Text #4
ID : 6
ID in the original source medium : 4610 (0x1202)
Format : PGS
Muxing mode : zlib
Codec ID : S_HDMV/PGS
Codec ID/Info : Picture based subtitle format used on BDs/HD-DVDs
Duration : 1 h 31 min
Bit rate : 26.7 kb/s
Count of elements : 1884
Stream size : 17.5 MiB (0%)
Title : Spanish-PGS
Language : Spanish
Default : No
Forced : No
Original source medium : Blu-ray

Text #5
ID : 7
ID in the original source medium : 4611 (0x1203)
Format : PGS
Muxing mode : zlib
Codec ID : S_HDMV/PGS
Codec ID/Info : Picture based subtitle format used on BDs/HD-DVDs
Duration : 1 h 31 min
Bit rate : 30.4 kb/s
Count of elements : 1940
Stream size : 19.8 MiB (0%)
Title : French-PGS
Language : French
Default : No
Forced : No
Original source medium : Blu-ray

Menu
00:00:00.000 : en:Chapter 01
00:06:54.705 : en:Chapter 02
00:14:34.540 : en:Chapter 03
00:23:01.755 : en:Chapter 04
00:31:59.834 : en:Chapter 05
00:41:24.940 : en:Chapter 06
00:50:50.797 : en:Chapter 07
00:57:12.929 : en:Chapter 08
01:04:05.842 : en:Chapter 09
01:12:14.580 : en:Chapter 10
01:21:35.891 : en:Chapter 11
01:29:31.366 : en:Chapter 12

本帖子中包含更多资源

您需要 登录 才可以下载或查看,没有帐号?立即注册

x
回复

使用道具 举报

0

主题

1032

帖子

7831

积分

VIP永久

Rank: 12Rank: 12Rank: 12

积分
7831
发表于 2021-2-10 09:46:10 | 显示全部楼层

感谢楼主分享!!!
回复

使用道具 举报

0

主题

84

帖子

571

积分

高级会员

Rank: 4

积分
571
发表于 2021-2-11 14:35:08 | 显示全部楼层
光头 里面比较牛的 !!
回复

使用道具 举报

0

主题

1125

帖子

4813

积分

论坛元老

Rank: 8Rank: 8

积分
4813
发表于 2021-2-12 20:23:48 | 显示全部楼层
感谢楼主分享高清影片
回复

使用道具 举报

0

主题

10

帖子

68

积分

注册会员

Rank: 2

积分
68
发表于 2021-2-13 16:48:32 | 显示全部楼层
楼主分享高清影片
回复

使用道具 举报

0

主题

49

帖子

290

积分

VIP永久

Rank: 12Rank: 12Rank: 12

积分
290
发表于 2021-2-14 16:17:55 | 显示全部楼层


感谢楼主分享!!!
回复

使用道具 举报

0

主题

246

帖子

1146

积分

金牌会员

Rank: 6Rank: 6

积分
1146
发表于 2021-2-14 18:37:01 | 显示全部楼层
谢谢楼主分享
回复

使用道具 举报

0

主题

22

帖子

167

积分

注册会员

Rank: 2

积分
167
发表于 2021-2-16 16:14:42 | 显示全部楼层
下来看看好不好看的,先谢谢了!!
回复

使用道具 举报

0

主题

246

帖子

1146

积分

金牌会员

Rank: 6Rank: 6

积分
1146
发表于 2021-2-16 21:34:52 | 显示全部楼层
谢谢楼主分享
回复

使用道具 举报

您需要登录后才可以回帖 登录 | 立即注册

本版积分规则

QQ|Archiver|手机版|小黑屋|原盘天堂 盘盘多 点击这里给我发消息

GMT+8, 2021-2-28 20:15 , Processed in 0.061352 second(s), 25 queries .

Powered by Discuz! X3.4

Copyright © 2001-2020, Tencent Cloud.

快速回复 返回顶部 返回列表