请选择 进入手机版 | 继续访问电脑版
本站原来Q群已取消,请原Q群会员和其他未入群会员加原盘天堂新官方QQ群713428235【盘盘多】,验证信息填写您在论坛的会员名,不填会员名的无法入群哈,进群后修改您的群名片名字为您在论坛的会员名,请务必修改,否则群成员多了不知道您是哪个会员。

原盘天堂

 找回密码
 立即注册
查看: 48|回复: 2

2d蓝光原盘bdmv 黑暗漫步 英语原版wander.darkly.2020.1080p.bluray.avc.dts-hd.ma.5.1[32.95 GB]

[复制链接]

5672

主题

6261

帖子

131万

积分

管理员

Rank: 18Rank: 18Rank: 18Rank: 18Rank: 18

积分
1318026
发表于 2021-2-9 20:07:24 | 显示全部楼层 |阅读模式






黑暗漫步 Wander Darkly (2020)

导演: Tara Miele
编剧: Tara Miele
主演: 西耶娜·米勒 / 迭戈·卢纳 / 贝丝·格兰特 / 詹姆斯·兰德里·赫伯特 / 托利·基特尔斯 / 更多...
类型: 剧情
制片国家/地区: 美国
上映日期: 2020-01-25(圣丹斯电影节) / 2020-12-11(美国)
又名: 黑暗漫游

豆瓣评分
6.0
86人评价
5星 8.1%
4星 12.2%
3星 56.8%
2星 17.6%
1星 5.4%

剧情简介 · · · · · ·
  西耶娜·米勒、迭戈·卢纳将主演新片[黑暗漫步](Wander Darkly,暂译)。该片由塔拉·米勒(Tara Miele)执导,是一个魔幻现实主义的爱情故事,讲述一对夫妇在一场毁灭性的车祸后,不得不面对种种灾难。

黑暗漫步 Wander Darkly 获奖情况
第36届圣丹斯电影节  (2020)
评审团大奖 剧情片(提名) Tara Miele

DISC INFO:

Disc Title:     Wander.Darkly.2020.1080p.BluRay.AVC.DTS-HD.MA.5.1-FGT
Disc Size:      35,383,644,858 bytes
Protection:     AACS
Extras:         BD-Java
BDInfo:         0.7.5.9 (compatible layout created by DVDFab 12.0.1.8)

PLAYLIST REPORT:

Name:                   00800.MPLS  
Length:                 1:37:02.858 (h:m:s.ms)
Size:                   30,527,852,544 bytes
Total Bitrate:          41.94 Mbps

VIDEO:

Codec                   Bitrate             Description     
-----                   -------             -----------     
MPEG-4 AVC Video        36298 kbps          1080p / 23.976 fps / 16:9 / High Profile 4.1

AUDIO:

Codec                           Language        Bitrate         Description     
-----                           --------        -------         -----------     
DTS-HD Master Audio             English         3303 kbps       5.1 / 48 kHz / 3303 kbps / 24-bit (DTS Core: 5.1 / 48 kHz / 1509 kbps / 24-bit)
Dolby Digital Audio             English         192 kbps        2.0 / 48 kHz / 192 kbps

SUBTITLES:

Codec                           Language        Bitrate         Description     
-----                           --------        -------         -----------     
Presentation Graphics           English         33.885 kbps                     
Presentation Graphics           Spanish         27.888 kbps  

Video
ID : 1
ID in the original source medium : 4113 (0x1011)
Format : AVC
Format/Info : Advanced Video Codec
Format profile : [email protected]
Format settings : CABAC / 4 Ref Frames
Format settings, CABAC : Yes
Format settings, Reference frames : 4 frames
Codec ID : V_MPEG4/ISO/AVC
Duration : 1 h 37 min
Bit rate mode : Variable
Bit rate : 35.2 Mb/s
Maximum bit rate : 37.0 Mb/s
Width : 1 920 pixels
Height : 1 080 pixels
Display aspect ratio : 16:9
Frame rate mode : Constant
Frame rate : 23.976 (24000/1001) FPS
Color space : YUV
Chroma subsampling : 4:2:0
Bit depth : 8 bits
Scan type : Progressive
Bits/(Pixel*Frame) : 0.707
Stream size : 23.8 GiB (91%)
Language : English
Default : No
Forced : No
Original source medium : Blu-ray

Audio #1
ID : 2
ID in the original source medium : 4352 (0x1100)
Format : DTS XLL
Format/Info : Digital Theater Systems
Commercial name : DTS-HD Master Audio
Codec ID : A_DTS
Duration : 1 h 37 min
Bit rate mode : Variable
Bit rate : 3 303 kb/s
Channel(s) : 6 channels
Channel layout : C L R Ls Rs LFE
Sampling rate : 48.0 kHz
Frame rate : 93.750 FPS (512 SPF)
Bit depth : 24 bits
Compression mode : Lossless
Stream size : 2.24 GiB (9%)
Title : DTS-HD MA 5.1
Language : English
Default : Yes
Forced : No
Original source medium : Blu-ray

Audio #2
ID : 3
ID in the original source medium : 4353 (0x1101)
Format : AC-3
Format/Info : Audio Coding 3
Commercial name : Dolby Digital
Codec ID : A_AC3
Duration : 1 h 37 min
Bit rate mode : Constant
Bit rate : 192 kb/s
Channel(s) : 2 channels
Channel layout : L R
Sampling rate : 48.0 kHz
Frame rate : 31.250 FPS (1536 SPF)
Compression mode : Lossy
Stream size : 133 MiB (0%)
Title : DD 2.0
Language : English
Service kind : Complete Main
Default : No
Forced : No
Original source medium : Blu-ray

Text #1
ID : 4
Format : UTF-8
Codec ID : S_TEXT/UTF8
Codec ID/Info : UTF-8 Plain Text
Duration : 1 h 31 min
Bit rate : 51 b/s
Count of elements : 1129
Stream size : 34.6 KiB (0%)
Title : English-SRT
Language : English
Default : Yes
Forced : No

Text #2
ID : 5
ID in the original source medium : 4608 (0x1200)
Format : PGS
Muxing mode : zlib
Codec ID : S_HDMV/PGS
Codec ID/Info : Picture based subtitle format used on BDs/HD-DVDs
Duration : 1 h 32 min
Bit rate : 35.4 kb/s
Count of elements : 2526
Stream size : 23.5 MiB (0%)
Title : English-PGS
Language : English
Default : No
Forced : No
Original source medium : Blu-ray

Text #3
ID : 6
ID in the original source medium : 4609 (0x1201)
Format : PGS
Muxing mode : zlib
Codec ID : S_HDMV/PGS
Codec ID/Info : Picture based subtitle format used on BDs/HD-DVDs
Duration : 1 h 35 min
Bit rate : 28.2 kb/s
Count of elements : 2138
Stream size : 19.4 MiB (0%)
Title : Spanish-PGS
Language : Spanish
Default : No
Forced : No
Original source medium : Blu-ray

Menu
00:00:00.000 : en:Chapter 01
00:03:42.805 : en:Chapter 02
00:10:37.970 : en:Chapter 03
00:15:29.136 : en:Chapter 04
00:24:08.947 : en:Chapter 05
00:31:51.826 : en:Chapter 06
00:37:21.989 : en:Chapter 07
00:42:05.981 : en:Chapter 08
00:51:25.749 : en:Chapter 09
00:55:33.997 : en:Chapter 10
01:02:46.637 : en:Chapter 11
01:06:14.428 : en:Chapter 12
01:10:54.583 : en:Chapter 13
01:14:52.196 : en:Chapter 14
01:24:47.916 : en:Chapter 15
01:29:18.728 : en:Chapter 16

本帖子中包含更多资源

您需要 登录 才可以下载或查看,没有帐号?立即注册

x
回复

使用道具 举报

0

主题

1032

帖子

7831

积分

VIP永久

Rank: 12Rank: 12Rank: 12

积分
7831
发表于 2021-2-10 09:45:47 | 显示全部楼层

感谢楼主分享!!!
回复

使用道具 举报

0

主题

1125

帖子

4813

积分

论坛元老

Rank: 8Rank: 8

积分
4813
发表于 2021-2-12 20:24:32 | 显示全部楼层
感谢楼主分享高清影片
回复

使用道具 举报

您需要登录后才可以回帖 登录 | 立即注册

本版积分规则

QQ|Archiver|手机版|小黑屋|原盘天堂 盘盘多 点击这里给我发消息

GMT+8, 2021-2-28 21:09 , Processed in 0.055037 second(s), 25 queries .

Powered by Discuz! X3.4

Copyright © 2001-2020, Tencent Cloud.

快速回复 返回顶部 返回列表