请选择 进入手机版 | 继续访问电脑版
本站原来Q群已取消,请原Q群会员和其他未入群会员加原盘天堂新官方QQ群713428235【盘盘多】,验证信息填写您在论坛的会员名,不填会员名的无法入群哈,进群后修改您的群名片名字为您在论坛的会员名,请务必修改,否则群成员多了不知道您是哪个会员。

原盘天堂

 找回密码
 立即注册
查看: 54|回复: 6

4k蓝光原盘bdmv 比尔和泰德寻歌记 英语原版 bill.and.ted.face.the.music.2020.2160p.bluray.hevc.dts-hd.ma.5.1[49.53 GB]

[复制链接]

5672

主题

6261

帖子

131万

积分

管理员

Rank: 18Rank: 18Rank: 18Rank: 18Rank: 18

积分
1317894
发表于 2021-2-8 07:52:44 | 显示全部楼层 |阅读模式








比尔和泰德寻歌记 Bill & Ted Face the Music (2020)

演: 迪恩·帕里索
编剧: 克里斯·马瑟森 / 艾德·索罗门
主演: 基努·里维斯 / 萨玛拉·维文 / 安东尼·卡里根 / 亚历克斯·温特 / 威廉姆·赛德勒 / 更多...
类型: 喜剧 / 科幻 / 音乐
制片国家/地区: 美国
语言: 英语
上映日期: 2020-08-28(美国)
片长: 91分钟
又名: 阿比阿弟寻歌大冒险(台)

豆瓣评分
5.8
1004人评价
5星 6.2%
4星 16.2%
3星 45.6%
2星 24.7%
1星 7.2%
好于 15% 喜剧片
好于 26% 科幻片

剧情简介 · · · · · ·
  此前基努·里维斯、亚历克斯·温特已确认联手回归喜剧[比尔和泰德]系列第三部[比尔和泰德寻歌记],导演迪恩·帕里索特,该系列原编剧克里斯·马瑟森、艾德·索罗门操刀剧本。但近日里维斯却对该片能否如期而至表示不太确定。里维斯是在接受“雅虎娱乐”采访时透露的这一消息,他称由于一些幕后问题,该片能否照原计划进行现在并不确定。里维斯表示:“我们为这部片子已经等了很长时间,但现在还是存在一些‘挑战’。我很喜欢这个系列的这些角色,新片剧本已经就绪,故事很棒,但在‘资金、版权、合同’上还存在一些问题。”
  [比尔和泰德]系列前两部[比尔和泰德历险记]、[比尔和泰德畅游鬼门关]分别于1989年、1991年上映,讲述了两个高中生穿越时空经历冒险的故事。新片则围绕两个已人到中年的好友再次开启时空探险、寻找“救命歌曲”展开。米高梅负责北美发行。

DISC INFO:

Disc Title:     Bill.and.Ted.Face.the.Music.2020.2160p.BluRay.HEVC.DTS-HD.MA.5.1-ESiR
Disc Size:      53,169,393,814 bytes
Protection:     AACS2
Extras:         Ultra HD, BD-Java
BDInfo:         0.7.5.9 (compatible layout created by DVDFab 12.0.1.8)

PLAYLIST REPORT:

Name:                   00001.MPLS  
Length:                 1:31:50.546 (h:m:s.ms)
Size:                   52,165,238,784 bytes
Total Bitrate:          75.73 Mbps

VIDEO:

Codec                   Bitrate             Description     
-----                   -------             -----------     
MPEG-H HEVC Video       64967 kbps          2160p / 23.976 fps / 16:9 / Main 10 @ Level 5.1 @ High / 4:2:0 / 10 bits / SDR / BT.709

AUDIO:

Codec                           Language        Bitrate         Description     
-----                           --------        -------         -----------     
DTS-HD Master Audio             English         3499 kbps       5.1 / 48 kHz / 3499 kbps / 24-bit (DTS Core: 5.1 / 48 kHz / 1509 kbps / 24-bit)
DTS-HD Master Audio             English         3538 kbps       5.1 / 48 kHz / 3538 kbps / 24-bit (DTS Core: 5.1 / 48 kHz / 1509 kbps / 24-bit)

SUBTITLES:

Codec                           Language        Bitrate         Description     
-----                           --------        -------         -----------     
Presentation Graphics           English         41.797 kbps         

Video
ID : 1
ID in the original source medium : 4113 (0x1011)
Format : HEVC
Format/Info : High Efficiency Video Coding
Format profile : Main [email protected]@High
Codec ID : V_MPEGH/ISO/HEVC
Duration : 1 h 31 min
Bit rate : 65.0 Mb/s
Width : 3 840 pixels
Height : 2 160 pixels
Display aspect ratio : 16:9
Frame rate mode : Constant
Frame rate : 23.976 (24000/1001) FPS
Color space : YUV
Chroma subsampling : 4:2:0
Bit depth : 10 bits
Bits/(Pixel*Frame) : 0.327
Stream size : 41.7 GiB (89%)
Language : English
Default : No
Forced : No
Color range : Limited
Color primaries : BT.709
Transfer characteristics : BT.709
Matrix coefficients : BT.709
Original source medium : Blu-ray

Audio #1
ID : 2
ID in the original source medium : 4352 (0x1100)
Format : DTS XLL
Format/Info : Digital Theater Systems
Commercial name : DTS-HD Master Audio
Codec ID : A_DTS
Duration : 1 h 31 min
Bit rate mode : Variable
Bit rate : 3 499 kb/s
Channel(s) : 6 channels
Channel layout : C L R Ls Rs LFE
Sampling rate : 48.0 kHz
Frame rate : 93.750 FPS (512 SPF)
Bit depth : 24 bits
Compression mode : Lossless
Stream size : 2.24 GiB (5%)
Title : DTS-HD MA 5.1
Language : English
Default : Yes
Forced : No
Original source medium : Blu-ray

Audio #2
ID : 3
Format : AC-3
Format/Info : Audio Coding 3
Commercial name : Dolby Digital
Codec ID : A_AC3
Duration : 1 h 31 min
Bit rate mode : Constant
Bit rate : 640 kb/s
Channel(s) : 6 channels
Channel layout : L R C LFE Ls Rs
Sampling rate : 48.0 kHz
Frame rate : 31.250 FPS (1536 SPF)
Compression mode : Lossy
Stream size : 420 MiB (1%)
Title : DD 5.1
Language : English
Service kind : Complete Main
Default : No
Forced : No

Audio #3
ID : 4
ID in the original source medium : 4353 (0x1101)
Format : DTS XLL
Format/Info : Digital Theater Systems
Commercial name : DTS-HD Master Audio
Codec ID : A_DTS
Duration : 1 h 31 min
Bit rate mode : Variable
Bit rate : 3 538 kb/s
Channel(s) : 6 channels
Channel layout : C L R Ls Rs LFE
Sampling rate : 48.0 kHz
Frame rate : 93.750 FPS (512 SPF)
Bit depth : 24 bits
Compression mode : Lossless
Stream size : 2.27 GiB (5%)
Title : DTS-HD MA 5.1
Language : English
Default : No
Forced : No
Original source medium : Blu-ray

Text #1
ID : 5
Format : UTF-8
Codec ID : S_TEXT/UTF8
Codec ID/Info : UTF-8 Plain Text
Duration : 1 h 31 min
Bit rate : 59 b/s
Count of elements : 1543
Stream size : 39.5 KiB (0%)
Title : English-SRT
Language : English
Default : Yes
Forced : No

Text #2
ID : 6
ID in the original source medium : 4608 (0x1200)
Format : PGS
Muxing mode : zlib
Codec ID : S_HDMV/PGS
Codec ID/Info : Picture based subtitle format used on BDs/HD-DVDs
Duration : 1 h 31 min
Bit rate : 42.1 kb/s
Count of elements : 3324
Stream size : 27.5 MiB (0%)
Title : English-PGS
Language : English
Default : No
Forced : No
Original source medium : Blu-ray

Menu
00:00:00.000 : en:Chapter 01
00:09:51.507 : en:Chapter 02
00:19:57.696 : en:Chapter 03
00:30:03.092 : en:Chapter 04
00:40:51.115 : en:Chapter 05
00:50:40.328 : en:Chapter 06
01:00:05.059 : en:Chapter 07
01:09:59.612 : en:Chapter 08
01:20:50.554 : en:Chapter 09

本帖子中包含更多资源

您需要 登录 才可以下载或查看,没有帐号?立即注册

x
回复

使用道具 举报

0

主题

1032

帖子

7831

积分

VIP永久

Rank: 12Rank: 12Rank: 12

积分
7831
发表于 2021-2-8 11:45:04 | 显示全部楼层

感谢楼主分享!!!
回复

使用道具 举报

0

主题

83

帖子

562

积分

高级会员

Rank: 4

积分
562
发表于 2021-2-8 19:28:35 | 显示全部楼层
Thank you very much
回复

使用道具 举报

0

主题

1125

帖子

4813

积分

论坛元老

Rank: 8Rank: 8

积分
4813
发表于 2021-2-8 20:42:03 | 显示全部楼层
感谢楼主分享高清影片
回复

使用道具 举报

0

主题

303

帖子

1702

积分

金牌会员

Rank: 6Rank: 6

积分
1702
发表于 2021-2-9 11:04:08 | 显示全部楼层
谢楼主分享
回复

使用道具 举报

0

主题

246

帖子

1146

积分

金牌会员

Rank: 6Rank: 6

积分
1146
发表于 2021-2-9 13:23:05 | 显示全部楼层
谢谢楼主分享
回复

使用道具 举报

0

主题

1125

帖子

4813

积分

论坛元老

Rank: 8Rank: 8

积分
4813
发表于 2021-2-12 19:54:20 | 显示全部楼层
感谢楼主分享高清影片
回复

使用道具 举报

您需要登录后才可以回帖 登录 | 立即注册

本版积分规则

QQ|Archiver|手机版|小黑屋|原盘天堂 盘盘多 点击这里给我发消息

GMT+8, 2021-2-28 13:51 , Processed in 0.056647 second(s), 25 queries .

Powered by Discuz! X3.4

Copyright © 2001-2020, Tencent Cloud.

快速回复 返回顶部 返回列表