请选择 进入手机版 | 继续访问电脑版
本站原来Q群已取消,请原Q群会员和其他未入群会员加原盘天堂新官方QQ群713428235【盘盘多】,验证信息填写您在论坛的会员名,不填会员名的无法入群哈,进群后修改您的群名片名字为您在论坛的会员名,请务必修改,否则群成员多了不知道您是哪个会员。

原盘天堂

 找回密码
 立即注册
查看: 156|回复: 9

4k蓝光原盘bdmv 完美星球 英语原版 双碟 a.perfect.planet.s01.2160p.bluray.hevc.truehd.7.1.atmos[133.02 GB]

[复制链接]

5672

主题

6261

帖子

131万

积分

管理员

Rank: 18Rank: 18Rank: 18Rank: 18Rank: 18

积分
1317926
发表于 2021-2-6 17:04:10 | 显示全部楼层 |阅读模式








完美星球 A Perfect Planet (2021)

主演: 大卫·爱登堡
类型: 纪录片
制片国家/地区: 英国
语言: 英语
首播: 2021-01-04(中国大陆) / 2021-01-03(英国)
集数: 5
单集片长: 60分钟

豆瓣评分
9.7
4103人评价
5星 88.0%
4星 11.1%
3星 0.8%
2星 0.0%
1星 0.1%

剧情简介 · · · · · ·
  《完美星球》是一部与地球科学巧妙结合的蓝筹自然历史纪录片,它揭示了我们所生存的这颗星球的运转规则。 这部纪录片共分为五集,展示了自然力量如何推动、塑造和维持地球生物的多样性,前四集分别探索了火山、 阳光、天气和海洋的力量,最后一集则着眼于新兴的自然力量:人类,揭示了人类对地球造成的巨大影响以及如何恢复地球完美的生态平衡。
  从印度雨季潮湿的土地到夏威夷火山炽热的山坡;从巴哈马的潮汐岛屿到冰天雪地的埃尔斯米尔岛;从冬夜郊外嚎叫的北极狼群到春季结冰的身体慢慢融化的木蛙;从加拉帕戈斯群岛以吸食海鸟鲜血解渴的吸血地雀,到每年成群结队聚集在火山湖中繁殖的非洲小红鹳,《完美星球》将带领我们踏上一场无与伦比的视觉之旅。
  这部纪录片将改变我们看待自然家园的方式。我们将一次又一次地见证地球所具有的强大自然力量是如何孕育生命的。

DISC1:
DISC INFO:

Disc Title:     DISC1
Disc Size:      80,897,794,110 bytes
Protection:     AACS2
Extras:         Ultra HD
BDInfo:         0.7.5.9 (compatible layout created by DVDFab 12.0.1.8)

PLAYLIST REPORT:

Name:                   00022.MPLS  
Length:                 2:35:39.663 (h:m:s.ms)
Size:                   80,346,304,512 bytes
Total Bitrate:          68.82 Mbps

VIDEO:

Codec                   Bitrate             Description     
-----                   -------             -----------     
MPEG-H HEVC Video       57143 kbps          2160p / 23.976 fps / 16:9 / Main 10 @ Level 5.1 @ High / 4:2:0 / 10 bits / 1000nits / HDR10 / BT.2020

AUDIO:

Codec                           Language        Bitrate         Description     
-----                           --------        -------         -----------     
DTS-HD Master Audio             English         2139 kbps       5.1 / 48 kHz / 2139 kbps / 16-bit (DTS Core: 5.1 / 48 kHz / 1509 kbps / 16-bit)
Dolby TrueHD/Atmos Audio        English         5248 kbps       7.1+11 objects / 48 kHz / 4608 kbps / 24-bit (AC3 Core: 5.1-EX / 48 kHz / 640 kbps)

SUBTITLES:

Codec                           Language        Bitrate         Description     
-----                           --------        -------         -----------     
Presentation Graphics           English         31.235 kbps                     

DISC2:
DISC INFO:

Disc Title:     DISC2
Disc Size:      61,928,231,748 bytes
Protection:     AACS2
Extras:         Ultra HD
BDInfo:         0.7.5.9 (compatible layout created by DVDFab 12.0.1.8)

PLAYLIST REPORT:

Name:                   00022.MPLS  
Length:                 1:50:50.060 (h:m:s.ms)
Size:                   50,301,763,584 bytes
Total Bitrate:          60.51 Mbps

VIDEO:

Codec                   Bitrate             Description     
-----                   -------             -----------     
MPEG-H HEVC Video       49393 kbps          2160p / 23.976 fps / 16:9 / Main 10 @ Level 5.1 @ High / 4:2:0 / 10 bits / 1000nits / HDR10 / BT.2020

AUDIO:

Codec                           Language        Bitrate         Description     
-----                           --------        -------         -----------     
DTS-HD Master Audio             English         2059 kbps       5.1 / 48 kHz / 2059 kbps / 16-bit (DTS Core: 5.1 / 48 kHz / 1509 kbps / 16-bit)
Dolby TrueHD/Atmos Audio        English         5092 kbps       7.1+11 objects / 48 kHz / 4452 kbps / 24-bit (AC3 Core: 5.1-EX / 48 kHz / 640 kbps)

SUBTITLES:

Codec                           Language        Bitrate         Description     
-----                           --------        -------         -----------     
Presentation Graphics           English         44.235 kbps  


Video
ID : 1
ID in the original source medium : 4113 (0x1011)
Format : HEVC
Format/Info : High Efficiency Video Coding
Format profile : Main [email protected]@High
HDR format : SMPTE ST 2086, HDR10 compatible
Codec ID : V_MPEGH/ISO/HEVC
Duration : 53 min 39 s
Bit rate : 57.4 Mb/s
Width : 3 840 pixels
Height : 2 160 pixels
Display aspect ratio : 16:9
Frame rate mode : Constant
Frame rate : 23.976 (24000/1001) FPS
Color space : YUV
Chroma subsampling : 4:2:0 (Type 2)
Bit depth : 10 bits
Bits/(Pixel*Frame) : 0.288
Stream size : 21.5 GiB (86%)
Language : English
Default : No
Forced : No
Color range : Limited
Color primaries : BT.2020
Transfer characteristics : PQ
Matrix coefficients : BT.2020 non-constant
Mastering display color primaries : Display P3
Mastering display luminance : min: 0.0050 cd/m2, max: 1000 cd/m2
Maximum Content Light Level : 1001 cd/m2
Maximum Frame-Average Light Level : 356 cd/m2
Original source medium : Blu-ray

Audio #1
ID : 2
ID in the original source medium : 4353 (0x1101)
Format : MLP FBA 16-ch
Format/Info : Meridian Lossless Packing FBA with 16-channel presentation
Commercial name : Dolby TrueHD with Dolby Atmos
Codec ID : A_TRUEHD
Duration : 53 min 39 s
Bit rate mode : Variable
Bit rate : 4 451 kb/s
Maximum bit rate : 6 852 kb/s
Channel(s) : 8 channels
Channel layout : L R C LFE Ls Rs Lb Rb
Sampling rate : 48.0 kHz
Frame rate : 1 200.000 FPS (40 SPF)
Compression mode : Lossless
Stream size : 1.67 GiB (7%)
Title : TrueHD 7.1 Atmos
Language : English
Default : Yes
Forced : No
Original source medium : Blu-ray
Number of dynamic objects : 11
Bed channel count : 1 channel
Bed channel configuration : LFE

Audio #2
ID : 3
Format : DTS XLL
Format/Info : Digital Theater Systems
Commercial name : DTS-HD Master Audio
Codec ID : A_DTS
Duration : 53 min 39 s
Bit rate mode : Variable
Bit rate : 4 316 kb/s
Channel(s) : 8 channels
Channel layout : C L R LFE Lb Rb Lss Rss
Sampling rate : 48.0 kHz
Frame rate : 93.750 FPS (512 SPF)
Bit depth : 24 bits
Compression mode : Lossless
Stream size : 1.62 GiB (6%)
Title : DTS-HD MA 7.1
Language : English
Default : No
Forced : No

Audio #3
ID : 4
ID in the original source medium : 4353 (0x1101)
Format : AC-3
Format/Info : Audio Coding 3
Commercial name : Dolby Digital
Codec ID : A_AC3
Duration : 53 min 39 s
Bit rate mode : Constant
Bit rate : 640 kb/s
Channel(s) : 6 channels
Channel layout : L R C LFE Ls Rs
Sampling rate : 48.0 kHz
Frame rate : 31.250 FPS (1536 SPF)
Compression mode : Lossy
Stream size : 246 MiB (1%)
Title : DD 5.1
Language : English
Service kind : Complete Main
Default : No
Forced : No
Original source medium : Blu-ray

Text #1
ID : 5
Format : UTF-8
Codec ID : S_TEXT/UTF8
Codec ID/Info : UTF-8 Plain Text
Duration : 52 min 26 s
Bit rate : 42 b/s
Count of elements : 408
Stream size : 16.3 KiB (0%)
Title : English-SRT
Language : English
Default : Yes
Forced : No

Text #2
ID : 6
ID in the original source medium : 4768 (0x12A0)
Format : PGS
Muxing mode : zlib
Codec ID : S_HDMV/PGS
Codec ID/Info : Picture based subtitle format used on BDs/HD-DVDs
Duration : 52 min 26 s
Bit rate : 32.5 kb/s
Count of elements : 904
Stream size : 12.2 MiB (0%)
Title : English-PGS
Language : English
Default : No
Forced : No
Original source medium : Blu-ray

Menu
00:00:00.000 : en:Chapter 01
00:15:17.541 : en:Chapter 02
00:23:16.937 : en:Chapter 03
00:32:23.274 : en:Chapter 04
00:45:35.858 : en:Chapter 05

本帖子中包含更多资源

您需要 登录 才可以下载或查看,没有帐号?立即注册

x
回复

使用道具 举报

0

主题

255

帖子

1018

积分

金牌会员

Rank: 6Rank: 6

积分
1018
发表于 2021-2-7 07:56:50 | 显示全部楼层
这个纪录片爆啊
回复

使用道具 举报

0

主题

121

帖子

676

积分

高级会员

Rank: 4

积分
676
发表于 2021-2-7 10:55:55 | 显示全部楼层
感谢楼主分享
回复

使用道具 举报

0

主题

683

帖子

4162

积分

论坛元老

Rank: 8Rank: 8

积分
4162
发表于 2021-2-7 12:39:22 | 显示全部楼层
感谢楼主分享
回复

使用道具 举报

0

主题

83

帖子

562

积分

高级会员

Rank: 4

积分
562
发表于 2021-2-7 13:37:11 | 显示全部楼层
国人会花钱制作这样的 非商业影片吗?呵呵
回复

使用道具 举报

0

主题

1032

帖子

7831

积分

VIP永久

Rank: 12Rank: 12Rank: 12

积分
7831
发表于 2021-2-7 18:23:54 | 显示全部楼层
感谢楼主分享!!!
回复

使用道具 举报

0

主题

246

帖子

1146

积分

金牌会员

Rank: 6Rank: 6

积分
1146
发表于 2021-2-7 20:02:53 | 显示全部楼层
谢谢楼主分享
回复

使用道具 举报

0

主题

5

帖子

197

积分

注册会员

Rank: 2

积分
197
发表于 2021-2-8 09:49:26 | 显示全部楼层
无与伦比的好东西666666
回复

使用道具 举报

0

主题

1125

帖子

4813

积分

论坛元老

Rank: 8Rank: 8

积分
4813
发表于 2021-2-8 20:44:45 | 显示全部楼层
感谢楼主分享高清影片
回复

使用道具 举报

0

主题

19

帖子

99

积分

注册会员

Rank: 2

积分
99
发表于 昨天 23:35 | 显示全部楼层
期待尽快diy中文字幕,制作成iso原盘。
回复

使用道具 举报

您需要登录后才可以回帖 登录 | 立即注册

本版积分规则

QQ|Archiver|手机版|小黑屋|原盘天堂 盘盘多 点击这里给我发消息

GMT+8, 2021-2-28 15:37 , Processed in 0.065647 second(s), 25 queries .

Powered by Discuz! X3.4

Copyright © 2001-2020, Tencent Cloud.

快速回复 返回顶部 返回列表