请选择 进入手机版 | 继续访问电脑版
本站原来Q群已取消,请原Q群会员和其他未入群会员加原盘天堂新官方QQ群713428235【盘盘多】,验证信息填写您在论坛的会员名,不填会员名的无法入群哈,进群后修改您的群名片名字为您在论坛的会员名,请务必修改,否则群成员多了不知道您是哪个会员。

原盘天堂

 找回密码
 立即注册
查看: 103|回复: 13

4k蓝光原盘bdmv 为所应为 英语原版 do.the.right.thing.1989.2160p.bluray.hevc.dts-x.7.1[87.47 GB]

[复制链接]

5672

主题

6261

帖子

131万

积分

管理员

Rank: 18Rank: 18Rank: 18Rank: 18Rank: 18

积分
1317926
发表于 2021-2-1 08:28:45 | 显示全部楼层 |阅读模式








为所应为 Do the Right Thing (1989)

导演: 斯派克·李
编剧: 斯派克·李
主演: 丹尼·爱罗 / 奥西·戴维斯 / 露比·迪 / 理查德·埃德森 / 吉安卡罗·埃斯波西托 / 更多...
类型: 剧情 / 喜剧
制片国家/地区: 美国
语言: 英语 / 意大利语 / 西班牙语
上映日期: 1989-05-19(戛纳电影节) / 1989-06-14(法国)
片长: 120 分钟
又名: 不作亏心事(港) / 循规蹈矩 / 不做错事

豆瓣评分
8.1
10261人评价
5星 29.2%
4星 51.6%
3星 16.7%
2星 2.0%
1星 0.5%
好于 75% 剧情片
好于 87% 喜剧片

剧情简介 · · · · · ·
  纽约布鲁克林黑人社区生活着各个族群的人:黑人、意大利移民、韩国人.....意大利移民Sal(丹尼·爱罗 Danny Aiello 饰)和他的两个儿子在这里经营一家比萨店很久了,Mookie(斯派克·李 Spike Lee 饰)在店里负责送外卖,经常和Sal的儿子闹矛盾。 Radio Raheem(Bill Nunn 饰)是一个喜欢提着一个收音机大声放着音乐到处走的年轻人。炎热的一天,黑人小伙Buggin' Out(吉安卡罗·埃斯波西托 Giancarlo Esposito 饰)发现比萨店墙上挂着的名人照片里没有一个黑人,十分不满;而Radio来到比萨店,却被Sal要求关掉收音机。心怀不满的Buggin' Out和Radio决定找Sal讨个说法,三人在争执中,Sal把Radio的收音机砸烂了。Radio大怒,便和Sal打了起来。警察赶来了,围观的人也越来越多,一场种族间的暴乱即将到来......
  本片被提名62届奥斯卡最佳男配角、最佳改编剧本,本片的成功使黑人导演斯派克李在好莱坞大放异彩。

为所应为 Do the Right Thing 获奖情况
第62届奥斯卡金像奖  (1990)
最佳男配角(提名) 丹尼·爱罗
最佳原创剧本(提名) 斯派克·李
第42届戛纳电影节  (1989)
主竞赛单元 金棕榈奖(提名) 斯派克·李

DISC INFO:

Disc Title:     Do.the.Right.Thing.1989.2160p.BluRay.HEVC.DTS-X.7.1-EATDIK
Disc Size:      93,904,983,166 bytes
Protection:     AACS2
Extras:         Ultra HD, BD-Java
BDInfo:         0.7.5.9 (compatible layout created by DVDFab 12.0.1.8)

PLAYLIST REPORT:

Name:                   00800.MPLS  
Length:                 1:59:48.514 (h:m:s.ms)
Size:                   80,230,465,536 bytes
Total Bitrate:          89.29 Mbps

VIDEO:

Codec                   Bitrate             Description     
-----                   -------             -----------     
MPEG-H HEVC Video       77666 kbps          2160p / 23.976 fps / 16:9 / Main 10 @ Level 5.1 @ High / 4:2:0 / 10 bits / 1000nits / HDR10 / BT.2020

AUDIO:

Codec                           Language        Bitrate         Description     
-----                           --------        -------         -----------     
DTS:X Master Audio              English         5330 kbps       7.1-X / 48 kHz / 5330 kbps / 24-bit (DTS Core: 5.1 / 48 kHz / 1509 kbps / 24-bit)
DTS Audio                       Spanish         768 kbps        5.1 / 48 kHz / 768 kbps / 24-bit
DTS Audio                       French          768 kbps        5.1 / 48 kHz / 768 kbps / 24-bit
Dolby Digital Audio             English         192 kbps        2.0 / 48 kHz / 192 kbps / Dolby Surround
Dolby Digital Audio             English         192 kbps        2.0 / 48 kHz / 192 kbps

SUBTITLES:

Codec                           Language        Bitrate         Description     
-----                           --------        -------         -----------     
Presentation Graphics           English         56.233 kbps                     
Presentation Graphics           Spanish         43.809 kbps                     
Presentation Graphics           French          46.082 kbps                     
Presentation Graphics           Spanish         1.011 kbps                     
Presentation Graphics           French          1.098 kbps      

Video
ID : 1
ID in the original source medium : 4113 (0x1011)
Format : HEVC
Format/Info : High Efficiency Video Coding
Format profile : Main [email protected]@High
HDR format : SMPTE ST 2086, HDR10 compatible
Codec ID : V_MPEGH/ISO/HEVC
Duration : 1 h 59 min
Bit rate : 77.7 Mb/s
Width : 3 840 pixels
Height : 2 160 pixels
Display aspect ratio : 16:9
Frame rate mode : Constant
Frame rate : 23.976 (24000/1001) FPS
Color space : YUV
Chroma subsampling : 4:2:0 (Type 2)
Bit depth : 10 bits
Bits/(Pixel*Frame) : 0.391
Stream size : 65.0 GiB (91%)
Language : English
Default : No
Forced : No
Color range : Limited
Color primaries : BT.2020
Transfer characteristics : PQ
Matrix coefficients : BT.2020 non-constant
Mastering display color primaries : Display P3
Mastering display luminance : min: 0.0050 cd/m2, max: 1000 cd/m2
Maximum Content Light Level : 628 cd/m2
Maximum Frame-Average Light Level : 104 cd/m2
Original source medium : Blu-ray

Audio #1
ID : 2
ID in the original source medium : 4352 (0x1100)
Format : DTS XLL X
Format/Info : Digital Theater Systems
Commercial name : DTS-HD Master Audio
Codec ID : A_DTS
Duration : 1 h 59 min
Bit rate mode : Variable
Bit rate : 5 330 kb/s
Channel(s) : 8 channels
Channel(s)_Original : Object Based
ChannelLayout_Original : Object Based
Sampling rate : 48.0 kHz
Frame rate : 93.750 FPS (512 SPF)
Bit depth : 24 bits
Stream size : 4.46 GiB (6%)
Title : DTS-X 7.1
Language : English
Default : Yes
Forced : No
Original source medium : Blu-ray

Audio #2
ID : 3
Format : AC-3
Format/Info : Audio Coding 3
Commercial name : Dolby Digital
Codec ID : A_AC3
Duration : 1 h 59 min
Bit rate mode : Constant
Bit rate : 640 kb/s
Channel(s) : 6 channels
Channel layout : L R C LFE Ls Rs
Sampling rate : 48.0 kHz
Frame rate : 31.250 FPS (1536 SPF)
Compression mode : Lossy
Stream size : 548 MiB (1%)
Title : DD 5.1
Language : English
Service kind : Complete Main
Default : No
Forced : No

Audio #3
ID : 4
ID in the original source medium : 4353 (0x1101)
Format : DTS
Format/Info : Digital Theater Systems
Codec ID : A_DTS
Duration : 1 h 59 min
Bit rate mode : Constant
Bit rate : 768 kb/s
Channel(s) : 6 channels
Channel layout : C L R Ls Rs LFE
Sampling rate : 48.0 kHz
Frame rate : 93.750 FPS (512 SPF)
Bit depth : 24 bits
Compression mode : Lossy
Stream size : 658 MiB (1%)
Title : DTS 5.1
Language : Spanish
Default : No
Forced : No
Original source medium : Blu-ray

Audio #4
ID : 5
ID in the original source medium : 4354 (0x1102)
Format : DTS
Format/Info : Digital Theater Systems
Codec ID : A_DTS
Duration : 1 h 59 min
Bit rate mode : Constant
Bit rate : 768 kb/s
Channel(s) : 6 channels
Channel layout : C L R Ls Rs LFE
Sampling rate : 48.0 kHz
Frame rate : 93.750 FPS (512 SPF)
Bit depth : 24 bits
Compression mode : Lossy
Stream size : 658 MiB (1%)
Title : DTS 5.1
Language : French
Default : No
Forced : No
Original source medium : Blu-ray

Audio #5
ID : 6
ID in the original source medium : 4355 (0x1103)
Format : AC-3
Format/Info : Audio Coding 3
Commercial name : Dolby Digital
Codec ID : A_AC3
Duration : 1 h 59 min
Bit rate mode : Constant
Bit rate : 192 kb/s
Channel(s) : 2 channels
Channel layout : L R
Sampling rate : 48.0 kHz
Frame rate : 31.250 FPS (1536 SPF)
Compression mode : Lossy
Stream size : 165 MiB (0%)
Title : DD 2.0
Language : English
Service kind : Complete Main
Default : No
Forced : No
Original source medium : Blu-ray

Audio #6
ID : 7
ID in the original source medium : 4356 (0x1104)
Format : AC-3
Format/Info : Audio Coding 3
Commercial name : Dolby Digital
Codec ID : A_AC3
Duration : 1 h 59 min
Bit rate mode : Constant
Bit rate : 192 kb/s
Channel(s) : 2 channels
Channel layout : L R
Sampling rate : 48.0 kHz
Frame rate : 31.250 FPS (1536 SPF)
Compression mode : Lossy
Stream size : 165 MiB (0%)
Title : DD 2.0
Language : English
Service kind : Complete Main
Default : No
Forced : No
Original source medium : Blu-ray

Text #1
ID : 8
Format : UTF-8
Codec ID : S_TEXT/UTF8
Codec ID/Info : UTF-8 Plain Text
Duration : 1 h 49 min
Bit rate : 87 b/s
Count of elements : 2000
Stream size : 69.8 KiB (0%)
Title : English-SRT
Language : English
Default : Yes
Forced : No

Text #2
ID : 9
ID in the original source medium : 4768 (0x12A0)
Format : PGS
Muxing mode : zlib
Codec ID : S_HDMV/PGS
Codec ID/Info : Picture based subtitle format used on BDs/HD-DVDs
Duration : 1 h 53 min
Bit rate : 59.2 kb/s
Count of elements : 4240
Stream size : 48.2 MiB (0%)
Title : English-PGS
Language : English
Default : No
Forced : No
Original source medium : Blu-ray

Text #3
ID : 10
ID in the original source medium : 4769 (0x12A1)
Format : PGS
Muxing mode : zlib
Codec ID : S_HDMV/PGS
Codec ID/Info : Picture based subtitle format used on BDs/HD-DVDs
Duration : 1 h 49 min
Bit rate : 48.0 kb/s
Count of elements : 3374
Stream size : 37.5 MiB (0%)
Title : Spanish-PGS
Language : Spanish
Default : No
Forced : No
Original source medium : Blu-ray

Text #4
ID : 11
ID in the original source medium : 4770 (0x12A2)
Format : PGS
Muxing mode : zlib
Codec ID : S_HDMV/PGS
Codec ID/Info : Picture based subtitle format used on BDs/HD-DVDs
Duration : 1 h 49 min
Bit rate : 50.5 kb/s
Count of elements : 3346
Stream size : 39.5 MiB (0%)
Title : French-PGS
Language : French
Default : No
Forced : No
Original source medium : Blu-ray

Text #5
ID : 12
ID in the original source medium : 4771 (0x12A3)
Format : PGS
Muxing mode : zlib
Codec ID : S_HDMV/PGS
Codec ID/Info : Picture based subtitle format used on BDs/HD-DVDs
Duration : 1 h 33 min
Bit rate : 1 291 b/s
Count of elements : 62
Stream size : 887 KiB (0%)
Title : Spanish-FORCED-PGS
Language : Spanish
Default : No
Forced : No
Original source medium : Blu-ray

Text #6
ID : 13
ID in the original source medium : 4772 (0x12A4)
Format : PGS
Muxing mode : zlib
Codec ID : S_HDMV/PGS
Codec ID/Info : Picture based subtitle format used on BDs/HD-DVDs
Duration : 1 h 33 min
Bit rate : 1 401 b/s
Count of elements : 58
Stream size : 964 KiB (0%)
Title : French-FORCED-PGS
Language : French
Default : No
Forced : No
Original source medium : Blu-ray

Menu
00:00:00.000 : en:Chapter 01
00:04:21.928 : en:Chapter 02
00:18:24.228 : en:Chapter 03
00:24:51.615 : en:Chapter 04
00:30:15.939 : en:Chapter 05
00:36:28.102 : en:Chapter 06
00:44:14.151 : en:Chapter 07
00:49:56.743 : en:Chapter 08
00:57:36.202 : en:Chapter 09
01:05:17.663 : en:Chapter 10
01:17:58.382 : en:Chapter 11
01:23:32.507 : en:Chapter 12
01:28:06.656 : en:Chapter 13
01:36:23.360 : en:Chapter 14
01:44:38.230 : en:Chapter 15
01:51:59.421 : en:Chapter 16

本帖子中包含更多资源

您需要 登录 才可以下载或查看,没有帐号?立即注册

x
回复

使用道具 举报

0

主题

1032

帖子

7831

积分

VIP永久

Rank: 12Rank: 12Rank: 12

积分
7831
发表于 2021-2-1 10:06:45 | 显示全部楼层
感谢楼主分享!!!
回复

使用道具 举报

0

主题

303

帖子

1702

积分

金牌会员

Rank: 6Rank: 6

积分
1702
发表于 2021-2-1 14:38:26 | 显示全部楼层
谢楼主分享
回复

使用道具 举报

0

主题

121

帖子

676

积分

高级会员

Rank: 4

积分
676
发表于 2021-2-1 18:39:00 | 显示全部楼层
感谢楼主分享!
回复

使用道具 举报

0

主题

142

帖子

732

积分

高级会员

Rank: 4

积分
732
发表于 2021-2-2 04:49:25 | 显示全部楼层
这个应该是不错的片子
回复

使用道具 举报

0

主题

255

帖子

1018

积分

金牌会员

Rank: 6Rank: 6

积分
1018
发表于 2021-2-3 10:50:10 | 显示全部楼层
感谢楼主分享高清资源
回复

使用道具 举报

0

主题

303

帖子

1702

积分

金牌会员

Rank: 6Rank: 6

积分
1702
发表于 2021-2-3 11:17:40 | 显示全部楼层
谢楼主分享
回复

使用道具 举报

0

主题

303

帖子

1702

积分

金牌会员

Rank: 6Rank: 6

积分
1702
发表于 2021-2-3 11:18:14 | 显示全部楼层
谢楼主分享
回复

使用道具 举报

0

主题

303

帖子

1702

积分

金牌会员

Rank: 6Rank: 6

积分
1702
发表于 2021-2-4 15:09:26 | 显示全部楼层
谢楼主分享
回复

使用道具 举报

0

主题

303

帖子

1702

积分

金牌会员

Rank: 6Rank: 6

积分
1702
发表于 2021-2-5 12:58:33 | 显示全部楼层
谢楼主分享
回复

使用道具 举报

您需要登录后才可以回帖 登录 | 立即注册

本版积分规则

QQ|Archiver|手机版|小黑屋|原盘天堂 盘盘多 点击这里给我发消息

GMT+8, 2021-2-28 15:22 , Processed in 0.059386 second(s), 24 queries .

Powered by Discuz! X3.4

Copyright © 2001-2020, Tencent Cloud.

快速回复 返回顶部 返回列表