请选择 进入手机版 | 继续访问电脑版
本站原来Q群已取消,请原Q群会员和其他未入群会员加原盘天堂新官方QQ群713428235【盘盘多】,验证信息填写您在论坛的会员名,不填会员名的无法入群哈,进群后修改您的群名片名字为您在论坛的会员名,请务必修改,否则群成员多了不知道您是哪个会员,无法为您发送高速链接!

原盘天堂

 找回密码
 立即注册
查看: 204|回复: 23

4k蓝光原盘bdmv 第九区 中文字幕 district.9.2009.2160p.bluray.hevc.truehd.7.1.atmos[55.07 GB]

[复制链接]

5448

主题

5975

帖子

129万

积分

管理员

Rank: 18Rank: 18Rank: 18Rank: 18Rank: 18

积分
1295140
发表于 2020-10-12 09:30:20 | 显示全部楼层 |阅读模式








第九区 District 9 (2009)

导演: 尼尔·布洛姆坎普
编剧: 尼尔·布洛姆坎普 / 特丽·塔歇尔
主演: 沙尔托·科普雷 / 詹森·库伯 / 娜塔莉·博尔特 / 茜尔雯·斯特赖克 / 约翰·萨莫尔 / 更多...
类型: 剧情 / 动作 / 科幻 / 惊悚
制片国家/地区: 美国 / 新西兰 / 加拿大 / 南非
语言: 英语 / 尼扬贾语 / 南非荷兰语 / 祖鲁语 / 科萨语 / 塞索托语
上映日期: 2009-11-27(中国大陆) / 2009-08-14(美国)
片长: 112分钟
又名: D-9异形禁区(港) / 第九禁区(台) / 第9区

豆瓣评分
8.3
355195人评价
5星 35.1%
4星 45.8%
3星 16.8%
2星 1.9%
1星 0.5%
好于 92% 科幻片
好于 85% 剧情片

剧情简介 · · · · · ·
  1990年,一艘巨大的飞船出现在地球上空,人们惶恐不安,却又分外好奇。经过一段时间紧张的等待,外星飞船始终没有动静。人类终于小心翼翼靠近它,强行走进舱内,结果发现了不计其数的外星人。他们形容丑陋,宛如虾子,而且健康状况极差,虚弱无力。原来这是一群来自外星的难民,他们最终被地球人接纳,并隔离在南非约翰内斯堡的一片区域内生活,此地名为“第九区”。经过长达20年的繁衍,外星难民的数量扩张至180万之多,且和周边人类的矛盾冲突不断,越来越多的人类呼吁将“大虾”赶出地球。
  MNU(列国同盟组织)经过磋商,决定将外星难民迁移到更为偏远的区域。MNU外星事务部门的特工威库斯(Sharlto Copley 饰)专门负责搬迁工作。威库斯在动员过程中傲慢随意,与当地居民冲突频频。最终,他为自己的行为付出代价,外星人的神秘流体将其感染,威库斯慢慢变成了外星人的模样……

第九区 District 9 获奖情况
第82届奥斯卡金像奖  (2010)
最佳影片(提名) 卡罗琳·康宁安 / 彼得·杰克逊
最佳改编剧本(提名) 尼尔·布洛姆坎普 / 特丽·塔歇尔
最佳剪辑(提名) 祖利安·格克
最佳视觉效果(提名) 丹·考夫曼 / 彼得·迈泽尔斯 / 罗伯特·哈布罗斯 / 马特·艾特肯
第67届金球奖  (2010)
电影类 最佳编剧(提名) 尼尔·布洛姆坎普 / 特丽·塔歇尔
第19届MTV电影奖  (2010)
MTV电影奖 最佳惊恐戏表演(提名) 沙尔托·科普雷
第22届芝加哥影评人协会奖  (2009)
最具潜力演员(提名) 沙尔托·科普雷
最具潜力导演 尼尔·布洛姆坎普
第43届堪萨斯影评人协会奖  (2010)
最佳科幻/恐怖片
第9届凤凰城影评人协会奖  (2009)
最佳新人导演 尼尔·布洛姆坎普
第12届美国青少年选择奖  (2010)
最佳科幻电影(提名)
最佳科幻电影男演员(提名) 沙尔托·科普雷

DISC INFO:

Disc Title:     District.9.2009.COMPLETE.UHD.BLURAY-DISTRICT9
Disc Size:      59,131,063,461 bytes
Protection:     AACS2
Extras:         Ultra HD, BD-Java
BDInfo:         0.7.5.9 (compatible layout created by DVDFab 12.0.0.0)

PLAYLIST REPORT:

Name:                   00001.MPLS  
Length:                 1:52:15.728 (h:m:s.ms)
Size:                   55,619,235,840 bytes
Total Bitrate:          66.06 Mbps

VIDEO:

Codec                   Bitrate             Description     
-----                   -------             -----------     
MPEG-H HEVC Video       49000 kbps          2160p / 23.976 fps / 16:9 / Main 10 @ Level 5.1 @ High / 4:2:0 / 10 bits / 4000nits / HDR10 / BT.2020

AUDIO:

Codec                           Language        Bitrate         Description     
-----                           --------        -------         -----------     
Dolby TrueHD/Atmos Audio        English         4082 kbps       7.1+11 objects / 48 kHz / 3442 kbps / 24-bit (AC3 Core: 5.1 / 48 kHz / 640 kbps)
DTS-HD Master Audio             English         2293 kbps       5.1 / 48 kHz / 2293 kbps / 16-bit (DTS Core: 5.1 / 48 kHz / 1509 kbps / 16-bit)
Dolby Digital Audio             English         640 kbps        5.1 / 48 kHz / 640 kbps
Dolby Digital Audio             French          640 kbps        5.1 / 48 kHz / 640 kbps
Dolby Digital Audio             German          640 kbps        5.1 / 48 kHz / 640 kbps
Dolby Digital Audio             Italian         640 kbps        5.1 / 48 kHz / 640 kbps
Dolby Digital Audio             Russian         640 kbps        5.1 / 48 kHz / 640 kbps
Dolby Digital Audio             Spanish         640 kbps        5.1 / 48 kHz / 640 kbps
Dolby Digital Audio             Spanish         640 kbps        5.1 / 48 kHz / 640 kbps
Dolby Digital Audio             Ukrainian       640 kbps        5.1 / 48 kHz / 640 kbps

SUBTITLES:

Codec                           Language        Bitrate         Description     
-----                           --------        -------         -----------     
Presentation Graphics           English         42.191 kbps                     
Presentation Graphics           English         33.601 kbps                     
Presentation Graphics           English         42.197 kbps                     
Presentation Graphics           English         33.606 kbps                     
Presentation Graphics           Arabic          18.318 kbps                     
Presentation Graphics           Chinese         33.937 kbps                     
Presentation Graphics           Chinese         33.599 kbps                     
Presentation Graphics           Czech           34.064 kbps                     
Presentation Graphics           Danish          33.579 kbps                     
Presentation Graphics           Dutch           31.837 kbps                     
Presentation Graphics           Estonian        33.45 kbps                     
Presentation Graphics           Finnish         34.538 kbps                     
Presentation Graphics           French          34.531 kbps                     
Presentation Graphics           German          45.381 kbps                     
Presentation Graphics           Greek           32.623 kbps                     
Presentation Graphics           Hindi           29.792 kbps                     
Presentation Graphics           Hungarian       36.626 kbps                     
Presentation Graphics           Italian         38.028 kbps                     
Presentation Graphics           Korean          17.981 kbps                     
Presentation Graphics           Lithuanian      33.187 kbps                     
Presentation Graphics           Norwegian       29.407 kbps                     
Presentation Graphics           Portuguese      25.215 kbps                     
Presentation Graphics           Portuguese      35.46 kbps                     
Presentation Graphics           Romanian        34.766 kbps                     
Presentation Graphics           Russian         35.297 kbps                     
Presentation Graphics           Spanish         29.182 kbps                     
Presentation Graphics           Spanish         33.535 kbps                     
Presentation Graphics           Swedish         33.98 kbps                     
Presentation Graphics           Thai            37.303 kbps                     
Presentation Graphics           Turkish         34.862 kbps                     
Presentation Graphics           Ukrainian       38.357 kbps                     
Presentation Graphics           French          5.572 kbps     

Video
ID : 1
ID in the original source medium : 4113 (0x1011)
Format : HEVC
Format/Info : High Efficiency Video Coding
Format profile : Main [email protected]@High
HDR format : SMPTE ST 2086, HDR10 compatible
Codec ID : V_MPEGH/ISO/HEVC
Duration : 1 h 52 min
Bit rate : 49.0 Mb/s
Width : 3 840 pixels
Height : 2 160 pixels
Display aspect ratio : 16:9
Frame rate mode : Constant
Frame rate : 23.976 (24000/1001) FPS
Color space : YUV
Chroma subsampling : 4:2:0 (Type 2)
Bit depth : 10 bits
Bits/(Pixel*Frame) : 0.246
Stream size : 38.4 GiB (78%)
Title : District.9.2009.2160p.BluRay.REMUX.HEVC.DTS-HD.MA.TrueHD.7.1.Atmos-FGT
Language : English
Default : No
Forced : No
Color range : Limited
Color primaries : BT.2020
Transfer characteristics : PQ
Matrix coefficients : BT.2020 non-constant
Mastering display color primaries : Display P3
Mastering display luminance : min: 0.0050 cd/m2, max: 4000 cd/m2
Maximum Content Light Level : 2376 cd/m2
Maximum Frame-Average Light Level : 517 cd/m2
Original source medium : Blu-ray

Audio #1
ID : 2
ID in the original source medium : 4352 (0x1100)
Format : MLP FBA 16-ch
Format/Info : Meridian Lossless Packing FBA with 16-channel presentation
Commercial name : Dolby TrueHD with Dolby Atmos
Codec ID : A_TRUEHD
Duration : 1 h 52 min
Bit rate mode : Variable
Bit rate : 3 442 kb/s
Maximum bit rate : 5 568 kb/s
Channel(s) : 8 channels
Channel layout : L R C LFE Ls Rs Lb Rb
Sampling rate : 48.0 kHz
Frame rate : 1 200.000 FPS (40 SPF)
Compression mode : Lossless
Stream size : 2.70 GiB (5%)
Title : District.9.2009.2160p.BluRay.REMUX.HEVC.DTS-HD.MA.TrueHD.7.1.Atmos-FGT
Language : English
Default : Yes
Forced : No
Original source medium : Blu-ray
Number of dynamic objects : 11
Bed channel count : 1 channel
Bed channel configuration : LFE

Audio #2
ID : 3
Format : DTS XLL
Format/Info : Digital Theater Systems
Commercial name : DTS-HD Master Audio
Codec ID : A_DTS
Duration : 1 h 52 min
Bit rate mode : Variable
Bit rate : 4 094 kb/s
Channel(s) : 8 channels
Channel layout : C L R LFE Lb Rb Lss Rss
Sampling rate : 48.0 kHz
Frame rate : 93.750 FPS (512 SPF)
Bit depth : 24 bits
Compression mode : Lossless
Stream size : 3.21 GiB (7%)
Title : District.9.2009.2160p.BluRay.REMUX.HEVC.DTS-HD.MA.TrueHD.7.1.Atmos-FGT
Language : English
Default : No
Forced : No

Audio #3
ID : 4
ID in the original source medium : 4352 (0x1100)
Format : AC-3
Format/Info : Audio Coding 3
Commercial name : Dolby Digital
Codec ID : A_AC3
Duration : 1 h 52 min
Bit rate mode : Constant
Bit rate : 640 kb/s
Channel(s) : 6 channels
Channel layout : L R C LFE Ls Rs
Sampling rate : 48.0 kHz
Frame rate : 31.250 FPS (1536 SPF)
Compression mode : Lossy
Stream size : 514 MiB (1%)
Title : District.9.2009.2160p.BluRay.REMUX.HEVC.DTS-HD.MA.TrueHD.7.1.Atmos-FGT
Language : English
Service kind : Complete Main
Default : No
Forced : No
Original source medium : Blu-ray

Audio #4
ID : 5
ID in the original source medium : 4354 (0x1102)
Format : AC-3
Format/Info : Audio Coding 3
Commercial name : Dolby Digital
Codec ID : A_AC3
Duration : 1 h 52 min
Bit rate mode : Constant
Bit rate : 640 kb/s
Channel(s) : 6 channels
Channel layout : L R C LFE Ls Rs
Sampling rate : 48.0 kHz
Frame rate : 31.250 FPS (1536 SPF)
Compression mode : Lossy
Stream size : 514 MiB (1%)
Title : District.9.2009.2160p.BluRay.REMUX.HEVC.DTS-HD.MA.TrueHD.7.1.Atmos-FGT
Language : English
Service kind : Complete Main
Default : No
Forced : No
Original source medium : Blu-ray

Audio #5
ID : 6
ID in the original source medium : 4355 (0x1103)
Format : AC-3
Format/Info : Audio Coding 3
Commercial name : Dolby Digital
Codec ID : A_AC3
Duration : 1 h 52 min
Bit rate mode : Constant
Bit rate : 640 kb/s
Channel(s) : 6 channels
Channel layout : L R C LFE Ls Rs
Sampling rate : 48.0 kHz
Frame rate : 31.250 FPS (1536 SPF)
Compression mode : Lossy
Stream size : 514 MiB (1%)
Title : District.9.2009.2160p.BluRay.REMUX.HEVC.DTS-HD.MA.TrueHD.7.1.Atmos-FGT
Language : French
Service kind : Complete Main
Default : No
Forced : No
Original source medium : Blu-ray

Audio #6
ID : 7
ID in the original source medium : 4356 (0x1104)
Format : AC-3
Format/Info : Audio Coding 3
Commercial name : Dolby Digital
Codec ID : A_AC3
Duration : 1 h 52 min
Bit rate mode : Constant
Bit rate : 640 kb/s
Channel(s) : 6 channels
Channel layout : L R C LFE Ls Rs
Sampling rate : 48.0 kHz
Frame rate : 31.250 FPS (1536 SPF)
Compression mode : Lossy
Stream size : 514 MiB (1%)
Title : District.9.2009.2160p.BluRay.REMUX.HEVC.DTS-HD.MA.TrueHD.7.1.Atmos-FGT
Language : German
Service kind : Complete Main
Default : No
Forced : No
Original source medium : Blu-ray

Audio #7
ID : 8
ID in the original source medium : 4357 (0x1105)
Format : AC-3
Format/Info : Audio Coding 3
Commercial name : Dolby Digital
Codec ID : A_AC3
Duration : 1 h 52 min
Bit rate mode : Constant
Bit rate : 640 kb/s
Channel(s) : 6 channels
Channel layout : L R C LFE Ls Rs
Sampling rate : 48.0 kHz
Frame rate : 31.250 FPS (1536 SPF)
Compression mode : Lossy
Stream size : 514 MiB (1%)
Title : District.9.2009.2160p.BluRay.REMUX.HEVC.DTS-HD.MA.TrueHD.7.1.Atmos-FGT
Language : Italian
Service kind : Complete Main
Default : No
Forced : No
Original source medium : Blu-ray

Audio #8
ID : 9
ID in the original source medium : 4358 (0x1106)
Format : AC-3
Format/Info : Audio Coding 3
Commercial name : Dolby Digital
Codec ID : A_AC3
Duration : 1 h 52 min
Bit rate mode : Constant
Bit rate : 640 kb/s
Channel(s) : 6 channels
Channel layout : L R C LFE Ls Rs
Sampling rate : 48.0 kHz
Frame rate : 31.250 FPS (1536 SPF)
Compression mode : Lossy
Stream size : 514 MiB (1%)
Title : District.9.2009.2160p.BluRay.REMUX.HEVC.DTS-HD.MA.TrueHD.7.1.Atmos-FGT
Language : Russian
Service kind : Complete Main
Default : No
Forced : No
Original source medium : Blu-ray

Audio #9
ID : 10
ID in the original source medium : 4359 (0x1107)
Format : AC-3
Format/Info : Audio Coding 3
Commercial name : Dolby Digital
Codec ID : A_AC3
Duration : 1 h 52 min
Bit rate mode : Constant
Bit rate : 640 kb/s
Channel(s) : 6 channels
Channel layout : L R C LFE Ls Rs
Sampling rate : 48.0 kHz
Frame rate : 31.250 FPS (1536 SPF)
Compression mode : Lossy
Stream size : 514 MiB (1%)
Title : District.9.2009.2160p.BluRay.REMUX.HEVC.DTS-HD.MA.TrueHD.7.1.Atmos-FGT
Language : Spanish
Service kind : Complete Main
Default : No
Forced : No
Original source medium : Blu-ray

Audio #10
ID : 11
ID in the original source medium : 4360 (0x1108)
Format : AC-3
Format/Info : Audio Coding 3
Commercial name : Dolby Digital
Codec ID : A_AC3
Duration : 1 h 52 min
Bit rate mode : Constant
Bit rate : 640 kb/s
Channel(s) : 6 channels
Channel layout : L R C LFE Ls Rs
Sampling rate : 48.0 kHz
Frame rate : 31.250 FPS (1536 SPF)
Compression mode : Lossy
Stream size : 514 MiB (1%)
Title : District.9.2009.2160p.BluRay.REMUX.HEVC.DTS-HD.MA.TrueHD.7.1.Atmos-FGT
Language : Spanish
Service kind : Complete Main
Default : No
Forced : No
Original source medium : Blu-ray

Audio #11
ID : 12
ID in the original source medium : 4361 (0x1109)
Format : AC-3
Format/Info : Audio Coding 3
Commercial name : Dolby Digital
Codec ID : A_AC3
Duration : 1 h 52 min
Bit rate mode : Constant
Bit rate : 640 kb/s
Channel(s) : 6 channels
Channel layout : L R C LFE Ls Rs
Sampling rate : 48.0 kHz
Frame rate : 31.250 FPS (1536 SPF)
Compression mode : Lossy
Stream size : 514 MiB (1%)
Title : District.9.2009.2160p.BluRay.REMUX.HEVC.DTS-HD.MA.TrueHD.7.1.Atmos-FGT
Language : Ukrainian
Service kind : Complete Main
Default : No
Forced : No
Original source medium : Blu-ray

Text #1
ID : 13
Format : UTF-8
Codec ID : S_TEXT/UTF8
Codec ID/Info : UTF-8 Plain Text
Duration : 1 h 43 min
Bit rate : 62 b/s
Count of elements : 1201
Stream size : 47.5 KiB (0%)
Title : English-SRT
Language : English
Default : Yes
Forced : No

Text #2
ID : 14
ID in the original source medium : 4768 (0x12A0)
Format : PGS
Muxing mode : zlib
Codec ID : S_HDMV/PGS
Codec ID/Info : Picture based subtitle format used on BDs/HD-DVDs
Duration : 1 h 48 min
Bit rate : 43.6 kb/s
Count of elements : 3136
Stream size : 33.9 MiB (0%)
Title : English-SDH-PGS
Language : English
Default : No
Forced : No
Original source medium : Blu-ray

Text #3
ID : 15
ID in the original source medium : 4769 (0x12A1)
Format : PGS
Muxing mode : zlib
Codec ID : S_HDMV/PGS
Codec ID/Info : Picture based subtitle format used on BDs/HD-DVDs
Duration : 1 h 43 min
Bit rate : 36.3 kb/s
Count of elements : 2408
Stream size : 27.0 MiB (0%)
Title : English-PGS
Language : English
Default : No
Forced : No
Original source medium : Blu-ray

Text #4
ID : 16
ID in the original source medium : 4770 (0x12A2)
Format : PGS
Muxing mode : zlib
Codec ID : S_HDMV/PGS
Codec ID/Info : Picture based subtitle format used on BDs/HD-DVDs
Duration : 1 h 48 min
Bit rate : 43.6 kb/s
Count of elements : 3136
Stream size : 33.9 MiB (0%)
Title : English-SDH-PGS
Language : English
Default : No
Forced : No
Original source medium : Blu-ray

Text #5
ID : 17
ID in the original source medium : 4771 (0x12A3)
Format : PGS
Muxing mode : zlib
Codec ID : S_HDMV/PGS
Codec ID/Info : Picture based subtitle format used on BDs/HD-DVDs
Duration : 1 h 43 min
Bit rate : 36.3 kb/s
Count of elements : 2408
Stream size : 27.0 MiB (0%)
Title : English-PGS
Language : English
Default : No
Forced : No
Original source medium : Blu-ray

Text #6
ID : 18
ID in the original source medium : 4772 (0x12A4)
Format : PGS
Muxing mode : zlib
Codec ID : S_HDMV/PGS
Codec ID/Info : Picture based subtitle format used on BDs/HD-DVDs
Duration : 1 h 43 min
Bit rate : 19.8 kb/s
Count of elements : 2793
Stream size : 14.7 MiB (0%)
Title : Arabic-PGS
Language : Arabic
Default : No
Forced : No
Original source medium : Blu-ray

Text #7
ID : 19
ID in the original source medium : 4773 (0x12A5)
Format : PGS
Muxing mode : zlib
Codec ID : S_HDMV/PGS
Codec ID/Info : Picture based subtitle format used on BDs/HD-DVDs
Duration : 1 h 43 min
Bit rate : 36.7 kb/s
Count of elements : 2958
Stream size : 27.2 MiB (0%)
Title : Chinese-PGS
Language : Chinese
Default : No
Forced : No
Original source medium : Blu-ray

Text #8
ID : 20
ID in the original source medium : 4774 (0x12A6)
Format : PGS
Muxing mode : zlib
Codec ID : S_HDMV/PGS
Codec ID/Info : Picture based subtitle format used on BDs/HD-DVDs
Duration : 1 h 43 min
Bit rate : 36.3 kb/s
Count of elements : 2958
Stream size : 27.0 MiB (0%)
Title : Chinese-PGS
Language : Chinese
Default : No
Forced : No
Original source medium : Blu-ray

Text #9
ID : 21
ID in the original source medium : 4775 (0x12A7)
Format : PGS
Muxing mode : zlib
Codec ID : S_HDMV/PGS
Codec ID/Info : Picture based subtitle format used on BDs/HD-DVDs
Duration : 1 h 51 min
Bit rate : 34.3 kb/s
Count of elements : 3362
Stream size : 27.4 MiB (0%)
Title : Czech-PGS
Language : Czech
Default : No
Forced : No
Original source medium : Blu-ray

Text #10
ID : 22
ID in the original source medium : 4776 (0x12A8)
Format : PGS
Muxing mode : zlib
Codec ID : S_HDMV/PGS
Codec ID/Info : Picture based subtitle format used on BDs/HD-DVDs
Duration : 1 h 51 min
Bit rate : 33.8 kb/s
Count of elements : 2944
Stream size : 27.0 MiB (0%)
Title : Danish-PGS
Language : Danish
Default : No
Forced : No
Original source medium : Blu-ray

Text #11
ID : 23
ID in the original source medium : 4777 (0x12A9)
Format : PGS
Muxing mode : zlib
Codec ID : S_HDMV/PGS
Codec ID/Info : Picture based subtitle format used on BDs/HD-DVDs
Duration : 1 h 43 min
Bit rate : 34.4 kb/s
Count of elements : 2768
Stream size : 25.6 MiB (0%)
Title : Dutch-PGS
Language : Dutch
Default : No
Forced : No
Original source medium : Blu-ray

Text #12
ID : 24
ID in the original source medium : 4778 (0x12AA)
Format : PGS
Muxing mode : zlib
Codec ID : S_HDMV/PGS
Codec ID/Info : Picture based subtitle format used on BDs/HD-DVDs
Duration : 1 h 43 min
Bit rate : 36.2 kb/s
Count of elements : 2590
Stream size : 26.9 MiB (0%)
Title : Estonian-PGS
Language : Estonian
Default : No
Forced : No
Original source medium : Blu-ray

Text #13
ID : 25
ID in the original source medium : 4779 (0x12AB)
Format : PGS
Muxing mode : zlib
Codec ID : S_HDMV/PGS
Codec ID/Info : Picture based subtitle format used on BDs/HD-DVDs
Duration : 1 h 51 min
Bit rate : 34.8 kb/s
Count of elements : 3032
Stream size : 27.7 MiB (0%)
Title : Finnish-PGS
Language : Finnish
Default : No
Forced : No
Original source medium : Blu-ray

Text #14
ID : 26
ID in the original source medium : 4780 (0x12AC)
Format : PGS
Muxing mode : zlib
Codec ID : S_HDMV/PGS
Codec ID/Info : Picture based subtitle format used on BDs/HD-DVDs
Duration : 1 h 51 min
Bit rate : 34.8 kb/s
Count of elements : 2924
Stream size : 27.7 MiB (0%)
Title : French-PGS
Language : French
Default : No
Forced : No
Original source medium : Blu-ray

Text #15
ID : 27
ID in the original source medium : 4781 (0x12AD)
Format : PGS
Muxing mode : zlib
Codec ID : S_HDMV/PGS
Codec ID/Info : Picture based subtitle format used on BDs/HD-DVDs
Duration : 1 h 43 min
Bit rate : 49.1 kb/s
Count of elements : 3154
Stream size : 36.4 MiB (0%)
Title : German-PGS
Language : German
Default : No
Forced : No
Original source medium : Blu-ray

Text #16
ID : 28
ID in the original source medium : 4781 (0x12AD)
Format : PGS
Muxing mode : zlib
Codec ID : S_HDMV/PGS
Codec ID/Info : Picture based subtitle format used on BDs/HD-DVDs
Duration : 1 h 42 min
Bit rate : 6 574 b/s
Count of elements : 552
Stream size : 4.83 MiB (0%)
Title : German-FORCED-PGS
Language : German
Default : No
Forced : No
Original source medium : Blu-ray

Text #17
ID : 29
ID in the original source medium : 4782 (0x12AE)
Format : PGS
Muxing mode : zlib
Codec ID : S_HDMV/PGS
Codec ID/Info : Picture based subtitle format used on BDs/HD-DVDs
Duration : 1 h 44 min
Bit rate : 35.2 kb/s
Count of elements : 2644
Stream size : 26.2 MiB (0%)
Title : Greek-PGS
Language : Greek
Default : No
Forced : No
Original source medium : Blu-ray

Text #18
ID : 30
ID in the original source medium : 4783 (0x12AF)
Format : PGS
Muxing mode : zlib
Codec ID : S_HDMV/PGS
Codec ID/Info : Picture based subtitle format used on BDs/HD-DVDs
Duration : 1 h 43 min
Bit rate : 32.2 kb/s
Count of elements : 2958
Stream size : 23.9 MiB (0%)
Title : Hindi-PGS
Language : Hindi
Default : No
Forced : No
Original source medium : Blu-ray

Text #19
ID : 31
ID in the original source medium : 4784 (0x12B0)
Format : PGS
Muxing mode : zlib
Codec ID : S_HDMV/PGS
Codec ID/Info : Picture based subtitle format used on BDs/HD-DVDs
Duration : 1 h 51 min
Bit rate : 36.9 kb/s
Count of elements : 3076
Stream size : 29.4 MiB (0%)
Title : Hungarian-PGS
Language : Hungarian
Default : No
Forced : No
Original source medium : Blu-ray

Text #20
ID : 32
ID in the original source medium : 4785 (0x12B1)
Format : PGS
Muxing mode : zlib
Codec ID : S_HDMV/PGS
Codec ID/Info : Picture based subtitle format used on BDs/HD-DVDs
Duration : 1 h 51 min
Bit rate : 38.3 kb/s
Count of elements : 2992
Stream size : 30.5 MiB (0%)
Title : Italian-PGS
Language : Italian
Default : No
Forced : No
Original source medium : Blu-ray

Text #21
ID : 33
ID in the original source medium : 4785 (0x12B1)
Format : PGS
Muxing mode : zlib
Codec ID : S_HDMV/PGS
Codec ID/Info : Picture based subtitle format used on BDs/HD-DVDs
Duration : 1 h 51 min
Bit rate : 4 147 b/s
Count of elements : 444
Stream size : 3.30 MiB (0%)
Title : Italian-FORCED-PGS
Language : Italian
Default : No
Forced : No
Original source medium : Blu-ray

Text #22
ID : 34
ID in the original source medium : 4786 (0x12B2)
Format : PGS
Muxing mode : zlib
Codec ID : S_HDMV/PGS
Codec ID/Info : Picture based subtitle format used on BDs/HD-DVDs
Duration : 1 h 51 min
Bit rate : 18.1 kb/s
Count of elements : 2622
Stream size : 14.4 MiB (0%)
Title : Korean-PGS
Language : Korean
Default : No
Forced : No
Original source medium : Blu-ray

Text #23
ID : 35
ID in the original source medium : 4787 (0x12B3)
Format : PGS
Muxing mode : zlib
Codec ID : S_HDMV/PGS
Codec ID/Info : Picture based subtitle format used on BDs/HD-DVDs
Duration : 1 h 43 min
Bit rate : 35.9 kb/s
Count of elements : 2699
Stream size : 26.6 MiB (0%)
Title : Lithuanian-PGS
Language : Lithuanian
Default : No
Forced : No
Original source medium : Blu-ray

Text #24
ID : 36
ID in the original source medium : 4788 (0x12B4)
Format : PGS
Muxing mode : zlib
Codec ID : S_HDMV/PGS
Codec ID/Info : Picture based subtitle format used on BDs/HD-DVDs
Duration : 1 h 51 min
Bit rate : 29.6 kb/s
Count of elements : 2304
Stream size : 23.6 MiB (0%)
Title : Norwegian-PGS
Language : Norwegian
Default : No
Forced : No
Original source medium : Blu-ray

Text #25
ID : 37
ID in the original source medium : 4789 (0x12B5)
Format : PGS
Muxing mode : zlib
Codec ID : S_HDMV/PGS
Codec ID/Info : Picture based subtitle format used on BDs/HD-DVDs
Duration : 1 h 51 min
Bit rate : 25.4 kb/s
Count of elements : 2658
Stream size : 20.2 MiB (0%)
Title : Portuguese-PGS
Language : Portuguese
Default : No
Forced : No
Original source medium : Blu-ray

Text #26
ID : 38
ID in the original source medium : 4790 (0x12B6)
Format : PGS
Muxing mode : zlib
Codec ID : S_HDMV/PGS
Codec ID/Info : Picture based subtitle format used on BDs/HD-DVDs
Duration : 1 h 51 min
Bit rate : 35.7 kb/s
Count of elements : 2827
Stream size : 28.5 MiB (0%)
Title : Portuguese-PGS
Language : Portuguese
Default : No
Forced : No
Original source medium : Blu-ray

Text #27
ID : 39
ID in the original source medium : 4791 (0x12B7)
Format : PGS
Muxing mode : zlib
Codec ID : S_HDMV/PGS
Codec ID/Info : Picture based subtitle format used on BDs/HD-DVDs
Duration : 1 h 51 min
Bit rate : 35.0 kb/s
Count of elements : 3398
Stream size : 27.9 MiB (0%)
Title : Romanian-PGS
Language : Romanian
Default : No
Forced : No
Original source medium : Blu-ray

Text #28
ID : 40
ID in the original source medium : 4792 (0x12B8)
Format : PGS
Muxing mode : zlib
Codec ID : S_HDMV/PGS
Codec ID/Info : Picture based subtitle format used on BDs/HD-DVDs
Duration : 1 h 51 min
Bit rate : 35.5 kb/s
Count of elements : 3522
Stream size : 28.3 MiB (0%)
Title : Russian-PGS
Language : Russian
Default : No
Forced : No
Original source medium : Blu-ray

Text #29
ID : 41
ID in the original source medium : 4792 (0x12B8)
Format : PGS
Muxing mode : zlib
Codec ID : S_HDMV/PGS
Codec ID/Info : Picture based subtitle format used on BDs/HD-DVDs
Duration : 1 h 50 min
Bit rate : 4 855 b/s
Count of elements : 522
Stream size : 3.84 MiB (0%)
Title : Russian-FORCED-PGS
Language : Russian
Default : No
Forced : No
Original source medium : Blu-ray

Text #30
ID : 42
ID in the original source medium : 4793 (0x12B9)
Format : PGS
Muxing mode : zlib
Codec ID : S_HDMV/PGS
Codec ID/Info : Picture based subtitle format used on BDs/HD-DVDs
Duration : 1 h 51 min
Bit rate : 29.4 kb/s
Count of elements : 2858
Stream size : 23.4 MiB (0%)
Title : Spanish-PGS
Language : Spanish
Default : No
Forced : No
Original source medium : Blu-ray

Text #31
ID : 43
ID in the original source medium : 4793 (0x12B9)
Format : PGS
Muxing mode : zlib
Codec ID : S_HDMV/PGS
Codec ID/Info : Picture based subtitle format used on BDs/HD-DVDs
Duration : 1 h 50 min
Bit rate : 3 463 b/s
Count of elements : 434
Stream size : 2.73 MiB (0%)
Title : Spanish-FORCED-PGS
Language : Spanish
Default : No
Forced : No
Original source medium : Blu-ray

Text #32
ID : 44
ID in the original source medium : 4794 (0x12BA)
Format : PGS
Muxing mode : zlib
Codec ID : S_HDMV/PGS
Codec ID/Info : Picture based subtitle format used on BDs/HD-DVDs
Duration : 1 h 51 min
Bit rate : 33.8 kb/s
Count of elements : 2954
Stream size : 26.9 MiB (0%)
Title : Spanish-PGS
Language : Spanish
Default : No
Forced : No
Original source medium : Blu-ray

Text #33
ID : 45
ID in the original source medium : 4794 (0x12BA)
Format : PGS
Muxing mode : zlib
Codec ID : S_HDMV/PGS
Codec ID/Info : Picture based subtitle format used on BDs/HD-DVDs
Duration : 1 h 38 min
Bit rate : 2 816 b/s
Count of elements : 316
Stream size : 1.99 MiB (0%)
Title : Spanish-FORCED-PGS
Language : Spanish
Default : No
Forced : No
Original source medium : Blu-ray

Text #34
ID : 46
ID in the original source medium : 4795 (0x12BB)
Format : PGS
Muxing mode : zlib
Codec ID : S_HDMV/PGS
Codec ID/Info : Picture based subtitle format used on BDs/HD-DVDs
Duration : 1 h 51 min
Bit rate : 34.2 kb/s
Count of elements : 3014
Stream size : 27.3 MiB (0%)
Title : Sewdish-PGS
Language : Swedish
Default : No
Forced : No
Original source medium : Blu-ray

Text #35
ID : 47
ID in the original source medium : 4796 (0x12BC)
Format : PGS
Muxing mode : zlib
Codec ID : S_HDMV/PGS
Codec ID/Info : Picture based subtitle format used on BDs/HD-DVDs
Duration : 1 h 51 min
Bit rate : 37.6 kb/s
Count of elements : 3385
Stream size : 30.0 MiB (0%)
Title : Thai-PGS
Language : Thai
Default : No
Forced : No
Original source medium : Blu-ray

Text #36
ID : 48
ID in the original source medium : 4797 (0x12BD)
Format : PGS
Muxing mode : zlib
Codec ID : S_HDMV/PGS
Codec ID/Info : Picture based subtitle format used on BDs/HD-DVDs
Duration : 1 h 51 min
Bit rate : 35.1 kb/s
Count of elements : 2954
Stream size : 28.0 MiB (0%)
Title : Turkish-PGS
Language : Turkish
Default : No
Forced : No
Original source medium : Blu-ray

Text #37
ID : 49
ID in the original source medium : 4798 (0x12BE)
Format : PGS
Muxing mode : zlib
Codec ID : S_HDMV/PGS
Codec ID/Info : Picture based subtitle format used on BDs/HD-DVDs
Duration : 1 h 51 min
Bit rate : 38.6 kb/s
Count of elements : 3492
Stream size : 30.8 MiB (0%)
Title : Ukrainian-PGS
Language : Ukrainian
Default : No
Forced : No
Original source medium : Blu-ray

Text #38
ID : 50
ID in the original source medium : 4798 (0x12BE)
Format : PGS
Muxing mode : zlib
Codec ID : S_HDMV/PGS
Codec ID/Info : Picture based subtitle format used on BDs/HD-DVDs
Duration : 1 h 51 min
Bit rate : 4 908 b/s
Count of elements : 520
Stream size : 3.90 MiB (0%)
Title : Ukrainian-FORCED-PGS
Language : Ukrainian
Default : No
Forced : No
Original source medium : Blu-ray

Text #39
ID : 51
ID in the original source medium : 4799 (0x12BF)
Format : PGS
Muxing mode : zlib
Codec ID : S_HDMV/PGS
Codec ID/Info : Picture based subtitle format used on BDs/HD-DVDs
Duration : 1 h 51 min
Bit rate : 5 628 b/s
Count of elements : 550
Stream size : 4.47 MiB (0%)
Title : French-FORCED-PGS
Language : French
Default : No
Forced : No
Original source medium : Blu-ray

Text #40
ID : 52
ID in the original source medium : 4799 (0x12BF)
Format : PGS
Muxing mode : zlib
Codec ID : S_HDMV/PGS
Codec ID/Info : Picture based subtitle format used on BDs/HD-DVDs
Duration : 1 h 51 min
Bit rate : 5 628 b/s
Count of elements : 550
Stream size : 4.47 MiB (0%)
Title : French-FORCED-PGS
Language : French
Default : No
Forced : No
Original source medium : Blu-ray

Menu
00:00:00.000 : en:Chapter 01
00:06:22.340 : en:Chapter 02
00:13:25.095 : en:Chapter 03
00:20:33.065 : en:Chapter 04
00:27:08.752 : en:Chapter 05
00:34:13.718 : en:Chapter 06
00:41:57.932 : en:Chapter 07
00:47:01.944 : en:Chapter 08
00:54:07.953 : en:Chapter 09
01:00:00.597 : en:Chapter 10
01:08:25.601 : en:Chapter 11
01:13:37.538 : en:Chapter 12
01:21:01.857 : en:Chapter 13
01:26:40.361 : en:Chapter 14
01:33:41.324 : en:Chapter 15
01:38:44.293 : en:Chapter 16

本帖子中包含更多资源

您需要 登录 才可以下载或查看,没有帐号?立即注册

x
回复

使用道具 举报

0

主题

144

帖子

1290

积分

金牌会员

Rank: 6Rank: 6

积分
1290
发表于 2020-10-12 10:44:18 | 显示全部楼层
谢谢楼主分享
回复

使用道具 举报

0

主题

247

帖子

1904

积分

金牌会员

Rank: 6Rank: 6

积分
1904
发表于 2020-10-12 13:15:21 | 显示全部楼层
第九区 District 9 (2009),不错啊
回复

使用道具 举报

0

主题

45

帖子

704

积分

高级会员

Rank: 4

积分
704
发表于 2020-10-13 01:05:53 | 显示全部楼层
Thank you very much!
回复

使用道具 举报

0

主题

679

帖子

5181

积分

论坛元老

Rank: 8Rank: 8

积分
5181
发表于 2020-10-13 05:26:25 | 显示全部楼层
thanks for  sharing
回复

使用道具 举报

0

主题

695

帖子

5505

积分

VIP永久

Rank: 12Rank: 12Rank: 12

积分
5505
发表于 2020-10-13 11:25:22 | 显示全部楼层

感谢楼主分享!!!
回复

使用道具 举报

0

主题

452

帖子

2607

积分

金牌会员

Rank: 6Rank: 6

积分
2607
发表于 2020-10-13 12:27:01 | 显示全部楼层
谢谢楼主分享
回复

使用道具 举报

0

主题

183

帖子

1478

积分

金牌会员

Rank: 6Rank: 6

积分
1478
发表于 2020-10-13 15:34:35 | 显示全部楼层
楼主发贴辛苦了,谢谢楼主的精彩分享!
回复

使用道具 举报

0

主题

18

帖子

154

积分

注册会员

Rank: 2

积分
154
发表于 2020-10-14 16:57:33 | 显示全部楼层
感谢分享,辛苦了
回复

使用道具 举报

0

主题

1

帖子

8

积分

新手上路

Rank: 1

积分
8
发表于 2020-10-14 20:21:04 | 显示全部楼层
谢谢楼主分享。
回复

使用道具 举报

您需要登录后才可以回帖 登录 | 立即注册

本版积分规则

QQ|Archiver|手机版|小黑屋|原盘天堂 盘盘多 点击这里给我发消息

GMT+8, 2020-10-27 09:24 , Processed in 0.075056 second(s), 24 queries .

Powered by Discuz! X3.4

Copyright © 2001-2020, Tencent Cloud.

快速回复 返回顶部 返回列表