请选择 进入手机版 | 继续访问电脑版
本站原来Q群已取消,请原Q群会员和其他未入群会员加原盘天堂新官方QQ群713428235【盘盘多】,验证信息填写您在论坛的会员名,不填会员名的无法入群哈,进群后修改您的群名片名字为您在论坛的会员名,请务必修改,否则群成员多了不知道您是哪个会员,无法为您发送高速链接!

原盘天堂

 找回密码
 立即注册
查看: 159|回复: 17

4k蓝光原盘bdmv 自然之力 英语原版 force.of.nature.2020.extended.2160p.bluray.hevc.dts-hd.ma.5.1[52.06 GB]

[复制链接]

5448

主题

5975

帖子

129万

积分

管理员

Rank: 18Rank: 18Rank: 18Rank: 18Rank: 18

积分
1295117
发表于 2020-10-12 08:58:07 | 显示全部楼层 |阅读模式








自然之力 Force of Nature (2020)

导演: 麦克·鲍力施
编剧: Cory Miller
主演: 梅尔·吉布森 / 凯特·波茨沃斯 / 埃米尔·赫斯基 / 大卫·札亚斯 / 斯蒂芬妮·卡约 / 更多...
类型: 剧情 / 动作
制片国家/地区: 美国
语言: 英语
上映日期: 2020-06-18(美国)
片长: 91分钟
又名: 飓风守护

豆瓣评分
4.6
441人评价
5星 3.1%
4星 4.7%
3星 31.5%
2星 41.7%
1星 18.9%

剧情简介 · · · · · ·
  梅尔·吉布森、凯特·波茨沃斯出演新片[自然之力](Force Of Nature,暂译)。本片由麦克·鲍力施执导,科里·米勒撰写剧本。本片讲述一名警察在飓风疏散过程中必须保护建筑物内的剩余居民,而犯罪分子则试图在建筑物内实施神秘抢劫。吉布森饰演一位固执的退休侦探,他拒绝疏散,并对出现在他家门口的窃贼进行了反击。

DISC INFO:

Disc Title:     Force.of.Nature.2020.MULTi.COMPLETE.UHD.BLURAY-SAViOURHD
Disc Size:      55,901,055,905 bytes
Protection:     AACS2
Extras:         Ultra HD, BD-Java, 50Hz Content
BDInfo:         0.7.5.9 (compatible layout created by DVDFab 11.1.0.7)

PLAYLIST REPORT:

Name:                   00001.MPLS  
Length:                 1:39:31.757 (h:m:s.ms)
Size:                   53,436,481,536 bytes
Total Bitrate:          71.59 Mbps

VIDEO:

Codec                   Bitrate             Description     
-----                   -------             -----------     
MPEG-H HEVC Video       60110 kbps          2160p / 23.976 fps / 16:9 / Main 10 @ Level 5.1 @ High / 4:2:0 / 10 bits / SDR / BT.709

AUDIO:

Codec                           Language        Bitrate         Description     
-----                           --------        -------         -----------     
DTS-HD Master Audio             German          3965 kbps       5.1 / 48 kHz / 3965 kbps / 24-bit (DTS Core: 5.1 / 48 kHz / 1509 kbps / 24-bit)
DTS-HD Master Audio             English         3964 kbps       5.1 / 48 kHz / 3964 kbps / 24-bit (DTS Core: 5.1 / 48 kHz / 1509 kbps / 24-bit)

SUBTITLES:

Codec                           Language        Bitrate         Description     
-----                           --------        -------         -----------     
Presentation Graphics           German          35.418 kbps                     
Presentation Graphics           German          0.105 kbps   

Video
ID : 1
ID in the original source medium : 4113 (0x1011)
Format : HEVC
Format/Info : High Efficiency Video Coding
Format profile : Main [email protected]@High
Codec ID : V_MPEGH/ISO/HEVC
Duration : 1 h 39 min
Bit rate : 60.1 Mb/s
Width : 3 840 pixels
Height : 2 160 pixels
Display aspect ratio : 16:9
Frame rate mode : Constant
Frame rate : 23.976 (24000/1001) FPS
Color space : YUV
Chroma subsampling : 4:2:0
Bit depth : 10 bits
Bits/(Pixel*Frame) : 0.302
Stream size : 41.8 GiB (88%)
Title : Force.of.Nature.2020.EXTENDED.2160p.BluRay.REMUX.SDR.HEVC.DTS-HD.MA.5.1-FGT
Language : English
Default : No
Forced : No
Color range : Limited
Color primaries : BT.709
Transfer characteristics : BT.709
Matrix coefficients : BT.709
Original source medium : Blu-ray

Audio #1
ID : 2
ID in the original source medium : 4353 (0x1101)
Format : DTS XLL
Format/Info : Digital Theater Systems
Commercial name : DTS-HD Master Audio
Codec ID : A_DTS
Duration : 1 h 39 min
Bit rate mode : Variable
Bit rate : 3 963 kb/s
Channel(s) : 6 channels
Channel layout : C L R Ls Rs LFE
Sampling rate : 48.0 kHz
Frame rate : 93.750 FPS (512 SPF)
Bit depth : 24 bits
Compression mode : Lossless
Stream size : 2.76 GiB (6%)
Title : Force.of.Nature.2020.EXTENDED.2160p.BluRay.REMUX.SDR.HEVC.DTS-HD.MA.5.1-FGT
Language : English
Default : Yes
Forced : No
Original source medium : Blu-ray

Audio #2
ID : 3
ID in the original source medium : 4352 (0x1100)
Format : DTS XLL
Format/Info : Digital Theater Systems
Commercial name : DTS-HD Master Audio
Codec ID : A_DTS
Duration : 1 h 39 min
Bit rate mode : Variable
Bit rate : 3 965 kb/s
Channel(s) : 6 channels
Channel layout : C L R Ls Rs LFE
Sampling rate : 48.0 kHz
Frame rate : 93.750 FPS (512 SPF)
Bit depth : 24 bits
Compression mode : Lossless
Stream size : 2.76 GiB (6%)
Title : Force.of.Nature.2020.EXTENDED.2160p.BluRay.REMUX.SDR.HEVC.DTS-HD.MA.5.1-FGT
Language : German
Default : No
Forced : No
Original source medium : Blu-ray

Text #1
ID : 4
ID in the original source medium : 4608 (0x1200)
Format : PGS
Muxing mode : zlib
Codec ID : S_HDMV/PGS
Codec ID/Info : Picture based subtitle format used on BDs/HD-DVDs
Duration : 1 h 34 min
Bit rate : 37.3 kb/s
Count of elements : 2138
Stream size : 25.2 MiB (0%)
Title : German-PGS
Language : German
Default : Yes
Forced : No
Original source medium : Blu-ray

Text #2
ID : 5
ID in the original source medium : 4609 (0x1201)
Format : PGS
Muxing mode : zlib
Codec ID : S_HDMV/PGS
Codec ID/Info : Picture based subtitle format used on BDs/HD-DVDs
Duration : 51 min 25 s
Bit rate : 203 b/s
Count of elements : 8
Stream size : 76.7 KiB (0%)
Title : German-PGS
Language : German
Default : No
Forced : No
Original source medium : Blu-ray

Menu
00:00:00.000 : en:Chapter 01
00:08:57.828 : en:Chapter 02
00:15:35.684 : en:Chapter 03
00:20:44.117 : en:Chapter 04
00:29:53.291 : en:Chapter 05
00:39:55.976 : en:Chapter 06
00:49:15.953 : en:Chapter 07
00:57:55.054 : en:Chapter 08
01:07:19.994 : en:Chapter 09
01:15:46.959 : en:Chapter 10
01:26:03.491 : en:Chapter 11
01:33:14.088 : en:Chapter 12

本帖子中包含更多资源

您需要 登录 才可以下载或查看,没有帐号?立即注册

x
回复

使用道具 举报

0

主题

90

帖子

595

积分

高级会员

Rank: 4

积分
595
发表于 2020-10-12 10:04:29 | 显示全部楼层
强烈支持楼主ing……
回复

使用道具 举报

0

主题

143

帖子

1277

积分

金牌会员

Rank: 6Rank: 6

积分
1277
发表于 2020-10-12 10:45:23 | 显示全部楼层
谢谢楼主分享
回复

使用道具 举报

0

主题

679

帖子

5181

积分

论坛元老

Rank: 8Rank: 8

积分
5181
发表于 2020-10-13 05:27:11 | 显示全部楼层
谢楼主分享
回复

使用道具 举报

0

主题

695

帖子

5502

积分

VIP永久

Rank: 12Rank: 12Rank: 12

积分
5502
发表于 2020-10-13 11:24:27 | 显示全部楼层

感谢楼主分享!!!
回复

使用道具 举报

0

主题

452

帖子

2607

积分

金牌会员

Rank: 6Rank: 6

积分
2607
发表于 2020-10-13 12:28:12 | 显示全部楼层
谢谢楼主分享
回复

使用道具 举报

0

主题

452

帖子

2607

积分

金牌会员

Rank: 6Rank: 6

积分
2607
发表于 2020-10-13 21:12:59 | 显示全部楼层
谢谢楼主分享
回复

使用道具 举报

0

主题

143

帖子

1277

积分

金牌会员

Rank: 6Rank: 6

积分
1277
发表于 2020-10-14 09:12:04 | 显示全部楼层
感谢楼主分享!
回复

使用道具 举报

0

主题

737

帖子

3206

积分

论坛元老

Rank: 8Rank: 8

积分
3206
发表于 2020-10-15 14:43:28 | 显示全部楼层
感谢楼主分享高清影片
回复

使用道具 举报

0

主题

180

帖子

963

积分

高级会员

Rank: 4

积分
963
发表于 2020-10-15 22:05:39 | 显示全部楼层
谢谢分享
回复

使用道具 举报

您需要登录后才可以回帖 登录 | 立即注册

本版积分规则

QQ|Archiver|手机版|小黑屋|原盘天堂 盘盘多 点击这里给我发消息

GMT+8, 2020-10-27 08:21 , Processed in 0.075864 second(s), 25 queries .

Powered by Discuz! X3.4

Copyright © 2001-2020, Tencent Cloud.

快速回复 返回顶部 返回列表