请选择 进入手机版 | 继续访问电脑版
本站原来Q群已取消,请原Q群会员和其他未入群会员加原盘天堂新官方QQ群713428235【盘盘多】,验证信息填写您在论坛的会员名,不填会员名的无法入群哈,进群后修改您的群名片名字为您在论坛的会员名,请务必修改,否则群成员多了不知道您是哪个会员,无法为您发送高速链接!

原盘天堂

 找回密码
 立即注册
查看: 128|回复: 13

2d蓝光原盘bdmv 敢梦有爱 英语原版 the.secret.dare.to.dream.2020.1080p.bluray.avc.dts-hd.ma.5.1[33.31 GB]

[复制链接]

5448

主题

5975

帖子

129万

积分

管理员

Rank: 18Rank: 18Rank: 18Rank: 18Rank: 18

积分
1295140
发表于 2020-10-9 11:17:28 | 显示全部楼层 |阅读模式






敢梦有爱 The Secret: Dare to Dream (2020)

导演: 安迪·坦纳特
编剧: 丽贝卡·布鲁斯特 / 安迪·坦纳特 / Rhonda Byrne / Rick Parks
主演: 凯蒂·霍尔姆斯 / 乔什·卢卡斯 / 杰瑞·奥康奈尔 / 西利亚·维斯顿 / Aidan Pierce Brennan / 更多...
类型: 剧情 / 爱情
制片国家/地区: 美国
语言: 英语
上映日期: 2020-04-17(美国)
又名: 秘密:梦想的力量(台) / 秘密:敢于梦想 / 敢爱有梦


剧情简介 · · · · · ·
  改编自全球畅销励志作品《秘密》。故事描述独自扶养三个孩子的寡妇米兰达(凯蒂荷姆丝 饰)在一场风暴过后,雇用了一名水电工布雷(乔许卢卡斯 饰)修缮受损的住家。 在闲暇之余,布雷会与米兰达分享他的人生哲学“吸引力法则”,布雷相信只要打从心底渴望某件事物,宇宙自然会有力量助你心想事成、梦想成真…..

DISC INFO:

Disc Title:     The.Secret.Dare.to.Dream.2020.1080p.BluRay.AVC.DTS-HD.MA.5.1-FGT
Disc Size:      35,764,473,534 bytes
Protection:     AACS
Extras:         BD-Java
BDInfo:         0.7.5.9 (compatible layout created by DVDFab 11.1.0.7)

PLAYLIST REPORT:

Name:                   00664.MPLS  
Length:                 1:47:36.491 (h:m:s.ms)
Size:                   33,858,269,184 bytes
Total Bitrate:          41.95 Mbps

VIDEO:

Codec                   Bitrate             Description     
-----                   -------             -----------     
MPEG-4 AVC Video        36185 kbps          1080p / 23.976 fps / 16:9 / High Profile 4.1

AUDIO:

Codec                           Language        Bitrate         Description     
-----                           --------        -------         -----------     
DTS-HD Master Audio             English         3603 kbps       5.1 / 48 kHz / 3603 kbps / 24-bit (DTS Core: 5.1 / 48 kHz / 1509 kbps / 24-bit)

SUBTITLES:

Codec                           Language        Bitrate         Description     
-----                           --------        -------         -----------     
Presentation Graphics           English         39.617 kbps                     
Presentation Graphics           Spanish         36.361 kbps                     
Presentation Graphics           French          34.541 kbps   

Video
ID : 1
ID in the original source medium : 4113 (0x1011)
Format : AVC
Format/Info : Advanced Video Codec
Format profile : [email protected]
Format settings : CABAC / 4 Ref Frames
Format settings, CABAC : Yes
Format settings, Reference frames : 4 frames
Codec ID : V_MPEG4/ISO/AVC
Duration : 1 h 47 min
Bit rate mode : Variable
Bit rate : 35.3 Mb/s
Maximum bit rate : 37.0 Mb/s
Width : 1 920 pixels
Height : 1 080 pixels
Display aspect ratio : 16:9
Frame rate mode : Constant
Frame rate : 23.976 (24000/1001) FPS
Color space : YUV
Chroma subsampling : 4:2:0
Bit depth : 8 bits
Scan type : Progressive
Bits/(Pixel*Frame) : 0.710
Stream size : 26.5 GiB (91%)
Title : The.Secret.Dare.to.Dream.2020.1080p.BluRay.REMUX.AVC.DTS-HD.MA.5.1-FGT
Language : English
Default : No
Forced : No
Original source medium : Blu-ray

Audio
ID : 2
ID in the original source medium : 4352 (0x1100)
Format : DTS XLL
Format/Info : Digital Theater Systems
Commercial name : DTS-HD Master Audio
Codec ID : A_DTS
Duration : 1 h 47 min
Bit rate mode : Variable
Bit rate : 3 603 kb/s
Channel(s) : 6 channels
Channel layout : C L R Ls Rs LFE
Sampling rate : 48.0 kHz
Frame rate : 93.750 FPS (512 SPF)
Bit depth : 24 bits
Compression mode : Lossless
Stream size : 2.71 GiB (9%)
Title : The.Secret.Dare.to.Dream.2020.1080p.BluRay.REMUX.AVC.DTS-HD.MA.5.1-FGT
Language : English
Default : Yes
Forced : No
Original source medium : Blu-ray

Text #1
ID : 3
Format : UTF-8
Codec ID : S_TEXT/UTF8
Codec ID/Info : UTF-8 Plain Text
Duration : 1 h 39 min
Bit rate : 66 b/s
Count of elements : 1549
Stream size : 48.3 KiB (0%)
Title : English-SRT
Language : English
Default : Yes
Forced : No

Text #2
ID : 4
ID in the original source medium : 4608 (0x1200)
Format : PGS
Muxing mode : zlib
Codec ID : S_HDMV/PGS
Codec ID/Info : Picture based subtitle format used on BDs/HD-DVDs
Duration : 1 h 40 min
Bit rate : 42.5 kb/s
Count of elements : 3042
Stream size : 30.5 MiB (0%)
Title : English-PGS
Language : English
Default : No
Forced : No
Original source medium : Blu-ray

Text #3
ID : 5
ID in the original source medium : 4609 (0x1201)
Format : PGS
Muxing mode : zlib
Codec ID : S_HDMV/PGS
Codec ID/Info : Picture based subtitle format used on BDs/HD-DVDs
Duration : 1 h 45 min
Bit rate : 37.0 kb/s
Count of elements : 2800
Stream size : 28.0 MiB (0%)
Title : Spanish-PGS
Language : Spanish
Default : No
Forced : No
Original source medium : Blu-ray

Text #4
ID : 6
ID in the original source medium : 4610 (0x1202)
Format : PGS
Muxing mode : zlib
Codec ID : S_HDMV/PGS
Codec ID/Info : Picture based subtitle format used on BDs/HD-DVDs
Duration : 1 h 45 min
Bit rate : 35.2 kb/s
Count of elements : 2696
Stream size : 26.6 MiB (0%)
Title : French-PGS
Language : French
Default : No
Forced : No
Original source medium : Blu-ray

Menu
00:00:00.000 : en:Chapter 01
00:04:28.851 : en:Chapter 02
00:09:33.656 : en:Chapter 03
00:16:22.106 : en:Chapter 04
00:24:55.202 : en:Chapter 05
00:32:44.837 : en:Chapter 06
00:37:57.984 : en:Chapter 07
00:45:51.165 : en:Chapter 08
00:50:51.214 : en:Chapter 09
00:56:12.118 : en:Chapter 10
01:02:20.987 : en:Chapter 11
01:11:14.853 : en:Chapter 12
01:20:20.440 : en:Chapter 13
01:25:20.740 : en:Chapter 14
01:30:56.451 : en:Chapter 15
01:36:50.888 : en:Chapter 16

本帖子中包含更多资源

您需要 登录 才可以下载或查看,没有帐号?立即注册

x
回复

使用道具 举报

0

主题

90

帖子

595

积分

高级会员

Rank: 4

积分
595
发表于 2020-10-9 11:29:43 | 显示全部楼层
天天有惊喜,先谢楼主.
回复

使用道具 举报

0

主题

695

帖子

5502

积分

VIP永久

Rank: 12Rank: 12Rank: 12

积分
5502
发表于 2020-10-9 18:43:07 | 显示全部楼层
感谢楼主分享!!!
回复

使用道具 举报

0

主题

452

帖子

2607

积分

金牌会员

Rank: 6Rank: 6

积分
2607
发表于 2020-10-10 11:10:25 | 显示全部楼层
感谢楼主分享
回复

使用道具 举报

0

主题

679

帖子

5181

积分

论坛元老

Rank: 8Rank: 8

积分
5181
发表于 2020-10-11 08:18:17 | 显示全部楼层
感谢楼主分享
回复

使用道具 举报

0

主题

452

帖子

2607

积分

金牌会员

Rank: 6Rank: 6

积分
2607
发表于 2020-10-11 09:00:43 | 显示全部楼层
感谢楼主分享
回复

使用道具 举报

0

主题

452

帖子

2607

积分

金牌会员

Rank: 6Rank: 6

积分
2607
发表于 2020-10-11 15:36:25 | 显示全部楼层
感谢楼主分享!!!
回复

使用道具 举报

0

主题

144

帖子

1290

积分

金牌会员

Rank: 6Rank: 6

积分
1290
发表于 2020-10-12 10:46:06 | 显示全部楼层
谢谢楼主分享
回复

使用道具 举报

0

主题

452

帖子

2607

积分

金牌会员

Rank: 6Rank: 6

积分
2607
发表于 2020-10-13 20:37:04 | 显示全部楼层
SSH 密钥1024调整到2048
回复

使用道具 举报

0

主题

18

帖子

154

积分

注册会员

Rank: 2

积分
154
发表于 2020-10-14 16:59:29 | 显示全部楼层
感谢楼主分享
回复

使用道具 举报

您需要登录后才可以回帖 登录 | 立即注册

本版积分规则

QQ|Archiver|手机版|小黑屋|原盘天堂 盘盘多 点击这里给我发消息

GMT+8, 2020-10-27 09:16 , Processed in 0.079345 second(s), 24 queries .

Powered by Discuz! X3.4

Copyright © 2001-2020, Tencent Cloud.

快速回复 返回顶部 返回列表