请选择 进入手机版 | 继续访问电脑版
本站原来Q群已取消,请原Q群会员和其他未入群会员加原盘天堂新官方QQ群713428235【盘盘多】,验证信息填写您在论坛的会员名,不填会员名的无法入群哈,进群后修改您的群名片名字为您在论坛的会员名,请务必修改,否则群成员多了不知道您是哪个会员,无法为您发送高速链接!

原盘天堂

 找回密码
 立即注册
查看: 103|回复: 9

2d蓝光原盘bdmv 神啊来救救我吧 英语原版 save.yourselves.2020.1080p.bluray.avc.dts-hd.ma.5.1[30.94 GB]

[复制链接]

5448

主题

5975

帖子

129万

积分

管理员

Rank: 18Rank: 18Rank: 18Rank: 18Rank: 18

积分
1295117
发表于 2020-10-9 11:07:21 | 显示全部楼层 |阅读模式








神啊来救救我吧 Save Yourselves! (2020)

导演: 亚历克斯·休斯顿·费希尔 / 埃莉诺·威尔逊
编剧: 亚历克斯·休斯顿·费希尔 / 埃莉诺·威尔逊
主演: 苏妮特·玛尼 / 约翰·雷诺兹 / 本·辛克莱尔 / 约翰·厄尔利 / 乔·费尔斯通 / 更多...
类型: 喜剧 / 科幻
制片国家/地区: 美国
语言: 英语
上映日期: 2020-01-25(圣丹斯电影节) / 2020-10-02(美国)
片长: 93分钟
又名: 神来救救我吧

豆瓣评分 引用
5.8
83人评价
5星 7.5%
4星 10.4%
3星 53.7%
2星 20.9%
1星 7.5%

剧情简介 · · · · · ·
  一对年轻的布鲁克林夫妇前往北部,他们断开了手机,与自己重新建立联系。由于切断了电子设备,他们错过了地球正遭受攻击的消息。

DISC INFO:

Disc Title:     Save.Yourselves.2020.1080p.BluRay.AVC.DTS-HD.MA.5.1-FGT
Disc Size:      33,219,475,009 bytes
Protection:     AACS
Extras:         BD-Java
BDInfo:         0.7.5.9 (compatible layout created by DVDFab 11.1.0.7)

PLAYLIST REPORT:

Name:                   00800.MPLS  
Length:                 1:33:56.297 (h:m:s.ms)
Size:                   28,023,472,128 bytes
Total Bitrate:          39.78 Mbps

VIDEO:

Codec                   Bitrate             Description     
-----                   -------             -----------     
MPEG-4 AVC Video        33994 kbps          1080p / 23.976 fps / 16:9 / High Profile 4.1

AUDIO:

Codec                           Language        Bitrate         Description     
-----                           --------        -------         -----------     
DTS-HD Master Audio             English         3279 kbps       5.1 / 48 kHz / 3279 kbps / 24-bit (DTS Core: 5.1 / 48 kHz / 1509 kbps / 24-bit)
Dolby Digital Audio             English         192 kbps        2.0 / 48 kHz / 192 kbps
Dolby Digital Audio             English         192 kbps        2.0 / 48 kHz / 192 kbps

SUBTITLES:

Codec                           Language        Bitrate         Description     
-----                           --------        -------         -----------     
Presentation Graphics           English         47.334 kbps                     
Presentation Graphics           Spanish         33.939 kbps               

Video
ID : 1
ID in the original source medium : 4113 (0x1011)
Format : AVC
Format/Info : Advanced Video Codec
Format profile : [email protected]
Format settings : CABAC / 4 Ref Frames
Format settings, CABAC : Yes
Format settings, Reference frames : 4 frames
Codec ID : V_MPEG4/ISO/AVC
Duration : 1 h 33 min
Bit rate mode : Variable
Bit rate : 33.9 Mb/s
Maximum bit rate : 37.0 Mb/s
Width : 1 920 pixels
Height : 1 080 pixels
Display aspect ratio : 16:9
Frame rate mode : Constant
Frame rate : 23.976 (24000/1001) FPS
Color space : YUV
Chroma subsampling : 4:2:0
Bit depth : 8 bits
Scan type : Progressive
Bits/(Pixel*Frame) : 0.681
Stream size : 22.2 GiB (90%)
Title : Save.Yourselves.2020.1080p.BluRay.REMUX.AVC.DTS-HD.MA.5.1-FGT
Language : English
Default : No
Forced : No
Original source medium : Blu-ray

Audio #1
ID : 2
ID in the original source medium : 4352 (0x1100)
Format : DTS XLL
Format/Info : Digital Theater Systems
Commercial name : DTS-HD Master Audio
Codec ID : A_DTS
Duration : 1 h 33 min
Bit rate mode : Variable
Bit rate : 3 279 kb/s
Channel(s) : 6 channels
Channel layout : C L R Ls Rs LFE
Sampling rate : 48.0 kHz
Frame rate : 93.750 FPS (512 SPF)
Bit depth : 24 bits
Compression mode : Lossless
Stream size : 2.15 GiB (9%)
Title : Save.Yourselves.2020.1080p.BluRay.REMUX.AVC.DTS-HD.MA.5.1-FGT
Language : English
Default : Yes
Forced : No
Original source medium : Blu-ray

Audio #2
ID : 3
ID in the original source medium : 4353 (0x1101)
Format : AC-3
Format/Info : Audio Coding 3
Commercial name : Dolby Digital
Codec ID : A_AC3
Duration : 1 h 33 min
Bit rate mode : Constant
Bit rate : 192 kb/s
Channel(s) : 2 channels
Channel layout : L R
Sampling rate : 48.0 kHz
Frame rate : 31.250 FPS (1536 SPF)
Compression mode : Lossy
Stream size : 129 MiB (1%)
Title : Save.Yourselves.2020.1080p.BluRay.REMUX.AVC.DTS-HD.MA.5.1-FGT
Language : English
Service kind : Complete Main
Default : No
Forced : No
Original source medium : Blu-ray

Audio #3
ID : 4
ID in the original source medium : 4354 (0x1102)
Format : AC-3
Format/Info : Audio Coding 3
Commercial name : Dolby Digital
Codec ID : A_AC3
Duration : 1 h 33 min
Bit rate mode : Constant
Bit rate : 192 kb/s
Channel(s) : 2 channels
Channel layout : L R
Sampling rate : 48.0 kHz
Frame rate : 31.250 FPS (1536 SPF)
Compression mode : Lossy
Stream size : 129 MiB (1%)
Title : Save.Yourselves.2020.1080p.BluRay.REMUX.AVC.DTS-HD.MA.5.1-FGT
Language : English
Service kind : Complete Main
Default : No
Forced : No
Original source medium : Blu-ray

Text #1
ID : 5
Format : UTF-8
Codec ID : S_TEXT/UTF8
Codec ID/Info : UTF-8 Plain Text
Duration : 1 h 32 min
Bit rate : 64 b/s
Count of elements : 1555
Stream size : 43.6 KiB (0%)
Title : English-SRT
Language : English
Default : Yes
Forced : No

Text #2
ID : 6
ID in the original source medium : 4608 (0x1200)
Format : PGS
Muxing mode : zlib
Codec ID : S_HDMV/PGS
Codec ID/Info : Picture based subtitle format used on BDs/HD-DVDs
Duration : 1 h 32 min
Bit rate : 48.2 kb/s
Count of elements : 3438
Stream size : 31.8 MiB (0%)
Title : English-PGS
Language : English
Default : No
Forced : No
Original source medium : Blu-ray

Text #3
ID : 7
ID in the original source medium : 4609 (0x1201)
Format : PGS
Muxing mode : zlib
Codec ID : S_HDMV/PGS
Codec ID/Info : Picture based subtitle format used on BDs/HD-DVDs
Duration : 1 h 33 min
Bit rate : 34.3 kb/s
Count of elements : 2740
Stream size : 22.8 MiB (0%)
Title : Spanish-PGS
Language : Spanish
Default : No
Forced : No
Original source medium : Blu-ray

Menu
00:00:00.000 : en:Chapter 01
00:05:14.063 : en:Chapter 02
00:10:38.095 : en:Chapter 03
00:14:28.701 : en:Chapter 04
00:20:34.566 : en:Chapter 05
00:23:35.872 : en:Chapter 06
00:28:41.594 : en:Chapter 07
00:31:34.976 : en:Chapter 08
00:37:46.514 : en:Chapter 09
00:42:27.795 : en:Chapter 10
00:47:54.288 : en:Chapter 11
00:52:49.791 : en:Chapter 12
00:57:17.642 : en:Chapter 13
00:59:33.736 : en:Chapter 14
01:04:16.769 : en:Chapter 15
01:10:22.468 : en:Chapter 16
01:15:38.784 : en:Chapter 17
01:22:55.887 : en:Chapter 18
01:25:56.693 : en:Chapter 19
01:30:59.704 : en:Chapter 20

本帖子中包含更多资源

您需要 登录 才可以下载或查看,没有帐号?立即注册

x
回复

使用道具 举报

0

主题

695

帖子

5502

积分

VIP永久

Rank: 12Rank: 12Rank: 12

积分
5502
发表于 2020-10-9 18:42:13 | 显示全部楼层
感谢楼主分享!!!
回复

使用道具 举报

0

主题

207

帖子

1406

积分

金牌会员

Rank: 6Rank: 6

积分
1406
发表于 2020-10-10 02:37:18 | 显示全部楼层
能下载?、、、、、、、、、、、、、
回复

使用道具 举报

0

主题

90

帖子

595

积分

高级会员

Rank: 4

积分
595
发表于 2020-10-10 11:44:17 | 显示全部楼层
天天有惊喜,谢谢楼主
回复

使用道具 举报

0

主题

452

帖子

2607

积分

金牌会员

Rank: 6Rank: 6

积分
2607
发表于 2020-10-10 12:42:02 | 显示全部楼层
感谢楼主分享
回复

使用道具 举报

0

主题

1251

帖子

7135

积分

论坛元老

Rank: 8Rank: 8

积分
7135
发表于 2020-10-11 00:23:46 | 显示全部楼层
谢谢楼主分享
回复

使用道具 举报

0

主题

679

帖子

5181

积分

论坛元老

Rank: 8Rank: 8

积分
5181
发表于 2020-10-11 09:00:38 | 显示全部楼层
thanks for sharing
回复

使用道具 举报

0

主题

4

帖子

18

积分

新手上路

Rank: 1

积分
18
发表于 2020-10-11 19:15:47 | 显示全部楼层
感谢楼主分享!!!
回复

使用道具 举报

0

主题

143

帖子

1277

积分

金牌会员

Rank: 6Rank: 6

积分
1277
发表于 2020-10-12 10:46:40 | 显示全部楼层
谢谢楼主分享
回复

使用道具 举报

0

主题

737

帖子

3206

积分

论坛元老

Rank: 8Rank: 8

积分
3206
发表于 2020-10-15 14:44:58 | 显示全部楼层
感谢楼主分享高清影片
回复

使用道具 举报

您需要登录后才可以回帖 登录 | 立即注册

本版积分规则

QQ|Archiver|手机版|小黑屋|原盘天堂 盘盘多 点击这里给我发消息

GMT+8, 2020-10-27 08:14 , Processed in 0.068630 second(s), 24 queries .

Powered by Discuz! X3.4

Copyright © 2001-2020, Tencent Cloud.

快速回复 返回顶部 返回列表