请选择 进入手机版 | 继续访问电脑版
本站原来Q群已取消,请原Q群会员和其他未入群会员加原盘天堂新官方QQ群713428235【盘盘多】,验证信息填写您在论坛的会员名,不填会员名的无法入群哈,进群后修改您的群名片名字为您在论坛的会员名,请务必修改,否则群成员多了不知道您是哪个会员,无法为您发送高速链接!

原盘天堂

 找回密码
 立即注册
查看: 150|回复: 11

2d蓝光原盘bdmv 烈火之前 英语原版 before.the.fire.2020.1080p.bluray.avc.dts-hd.ma.5.1[21.29 GB]

[复制链接]

5448

主题

5975

帖子

129万

积分

管理员

Rank: 18Rank: 18Rank: 18Rank: 18Rank: 18

积分
1295140
发表于 2020-10-9 10:52:26 | 显示全部楼层 |阅读模式






烈火之前 Before the Fire (2020)

导演: Charlie Buhler
编剧: 詹娜·林·亚当斯
主演: 詹娜·林·亚当斯 / 杰克逊·戴维斯 / 瑞恩·维吉兰特 / Charles Hubbell / Dakota Morrissiey / 更多...
类型: 剧情 / 动作 / 科幻
制片国家/地区: 美国
语言: 英语
上映日期: 2020-03-07(曼彻斯特电影节)
又名: The Great Silence

豆瓣评分 引用
4.1
132人评价
5星 2.7%
4星 4.5%
3星 21.4%
2星 38.4%
1星 33.0%

剧情简介 · · · · · ·
  当全球大流行迫使一名电视女演员逃离她的农村故乡时,入侵她的过去被证明像入侵病毒一样危险。

DISC INFO:

Disc Title:     Before.the.Fire.2020.1080p.BluRay.AVC.DTS-HD.MA.5.1-FGT
Disc Size:      22,859,466,348 bytes
Protection:     AACS
BDInfo:         0.7.5.9 (compatible layout created by DVDFab 11.1.0.7)

PLAYLIST REPORT:

Name:                   00009.MPLS  
Length:                 1:30:42.937 (h:m:s.ms)
Size:                   19,923,652,608 bytes
Total Bitrate:          29.28 Mbps

VIDEO:

Codec                   Bitrate             Description     
-----                   -------             -----------     
MPEG-4 AVC Video        23991 kbps          1080p / 23.976 fps / 16:9 / High Profile 4.1

AUDIO:

Codec                           Language        Bitrate         Description     
-----                           --------        -------         -----------     
DTS-HD Master Audio             English         1974 kbps       5.1 / 48 kHz / 1974 kbps / 16-bit (DTS Core: 5.1 / 48 kHz / 1509 kbps / 16-bit)
LPCM Audio                      English         1536 kbps       2.0 / 48 kHz / 1536 kbps / 16-bit

SUBTITLES:

Codec                           Language        Bitrate         Description     
-----                           --------        -------         -----------     
Presentation Graphics           English         29.314 kbps               

Video
ID : 1
ID in the original source medium : 4113 (0x1011)
Format : AVC
Format/Info : Advanced Video Codec
Format profile : [email protected]
Format settings : CABAC / 4 Ref Frames
Format settings, CABAC : Yes
Format settings, Reference frames : 4 frames
Format settings, GOP : M=3, N=12
Codec ID : V_MPEG4/ISO/AVC
Duration : 1 h 30 min
Bit rate mode : Variable
Bit rate : 23.9 Mb/s
Maximum bit rate : 37.0 Mb/s
Width : 1 920 pixels
Height : 1 080 pixels
Display aspect ratio : 16:9
Frame rate mode : Constant
Frame rate : 23.976 (24000/1001) FPS
Color space : YUV
Chroma subsampling : 4:2:0
Bit depth : 8 bits
Scan type : Progressive
Bits/(Pixel*Frame) : 0.481
Stream size : 15.2 GiB (87%)
Title : Before.the.Fire.2020.1080p.BluRay.REMUX.AVC.DTS-HD.MA.5.1-FGT
Language : English
Default : No
Forced : No
Color range : Limited
Color primaries : BT.709
Transfer characteristics : BT.709
Matrix coefficients : BT.709
Original source medium : Blu-ray

Audio #1
ID : 2
ID in the original source medium : 4352 (0x1100)
Format : DTS XLL
Format/Info : Digital Theater Systems
Commercial name : DTS-HD Master Audio
Codec ID : A_DTS
Duration : 1 h 30 min
Bit rate mode : Variable
Bit rate : 1 974 kb/s
Channel(s) : 6 channels
Channel layout : C L R Ls Rs LFE
Sampling rate : 48.0 kHz
Frame rate : 93.750 FPS (512 SPF)
Bit depth : 16 bits
Compression mode : Lossless
Stream size : 1.25 GiB (7%)
Title : Before.the.Fire.2020.1080p.BluRay.REMUX.AVC.DTS-HD.MA.5.1-FGT
Language : English
Default : Yes
Forced : No
Original source medium : Blu-ray

Audio #2
ID : 3
ID in the original source medium : 4353 (0x1101)
Format : PCM
Format settings : Little / Signed
Codec ID : A_PCM/INT/LIT
Duration : 1 h 30 min
Bit rate mode : Constant
Bit rate : 1 536 kb/s
Channel(s) : 2 channels
Sampling rate : 48.0 kHz
Frame rate : 30.000 FPS (1600 SPF)
Bit depth : 16 bits
Stream size : 997 MiB (6%)
Title : Before.the.Fire.2020.1080p.BluRay.REMUX.AVC.DTS-HD.MA.5.1-FGT
Language : English
Default : No
Forced : No
Original source medium : Blu-ray

Text #1
ID : 4
Format : UTF-8
Codec ID : S_TEXT/UTF8
Codec ID/Info : UTF-8 Plain Text
Duration : 1 h 26 min
Bit rate : 34 b/s
Count of elements : 943
Stream size : 22.2 KiB (0%)
Title : English-SRT
Language : English
Default : Yes
Forced : No

Text #2
ID : 5
ID in the original source medium : 4608 (0x1200)
Format : PGS
Muxing mode : zlib
Codec ID : S_HDMV/PGS
Codec ID/Info : Picture based subtitle format used on BDs/HD-DVDs
Duration : 1 h 27 min
Bit rate : 30.3 kb/s
Count of elements : 2174
Stream size : 19.0 MiB (0%)
Title : English-PGS
Language : English
Default : No
Forced : No
Original source medium : Blu-ray

Menu
00:00:00.000 : en:Chapter 01
00:02:42.662 : en:Chapter 02
00:06:46.614 : en:Chapter 03
00:12:26.704 : en:Chapter 04
00:16:52.177 : en:Chapter 05
00:20:33.857 : en:Chapter 06
00:24:35.557 : en:Chapter 07
00:29:38.985 : en:Chapter 08
00:34:29.817 : en:Chapter 09
00:38:11.747 : en:Chapter 10
00:42:18.410 : en:Chapter 11
00:46:16.690 : en:Chapter 12
00:49:33.136 : en:Chapter 13
00:53:23.116 : en:Chapter 14
00:58:24.834 : en:Chapter 15
01:02:29.370 : en:Chapter 16
01:07:17.450 : en:Chapter 17
01:11:10.224 : en:Chapter 18
01:15:53.757 : en:Chapter 19
01:19:59.920 : en:Chapter 20
01:23:08.650 : en:Chapter 21
01:26:31.144 : en:Chapter 22

本帖子中包含更多资源

您需要 登录 才可以下载或查看,没有帐号?立即注册

x
回复

使用道具 举报

0

主题

695

帖子

5502

积分

VIP永久

Rank: 12Rank: 12Rank: 12

积分
5502
发表于 2020-10-9 18:41:26 | 显示全部楼层
感谢楼主分享!!!
回复

使用道具 举报

0

主题

452

帖子

2607

积分

金牌会员

Rank: 6Rank: 6

积分
2607
发表于 2020-10-10 12:06:27 | 显示全部楼层
感谢楼主分享
回复

使用道具 举报

0

主题

679

帖子

5181

积分

论坛元老

Rank: 8Rank: 8

积分
5181
发表于 2020-10-11 09:03:05 | 显示全部楼层
感谢楼主分享
回复

使用道具 举报

0

主题

99

帖子

948

积分

VIP永久

Rank: 12Rank: 12Rank: 12

积分
948
发表于 2020-10-11 09:49:08 | 显示全部楼层
下来看看,没有字幕吗?
回复

使用道具 举报

0

主题

452

帖子

2607

积分

金牌会员

Rank: 6Rank: 6

积分
2607
发表于 2020-10-11 11:27:13 | 显示全部楼层
感谢楼主分享
回复

使用道具 举报

0

主题

143

帖子

1280

积分

金牌会员

Rank: 6Rank: 6

积分
1280
发表于 2020-10-12 10:47:30 | 显示全部楼层
谢谢楼主分享
回复

使用道具 举报

0

主题

452

帖子

2607

积分

金牌会员

Rank: 6Rank: 6

积分
2607
发表于 2020-10-12 11:45:30 | 显示全部楼层
感谢楼主分享
回复

使用道具 举报

0

主题

18

帖子

154

积分

注册会员

Rank: 2

积分
154
发表于 2020-10-14 17:19:35 | 显示全部楼层
感谢楼主分享
回复

使用道具 举报

0

主题

737

帖子

3206

积分

论坛元老

Rank: 8Rank: 8

积分
3206
发表于 2020-10-15 14:50:19 | 显示全部楼层
感谢楼主分享高清影片
回复

使用道具 举报

您需要登录后才可以回帖 登录 | 立即注册

本版积分规则

QQ|Archiver|手机版|小黑屋|原盘天堂 盘盘多 点击这里给我发消息

GMT+8, 2020-10-27 09:09 , Processed in 0.066451 second(s), 24 queries .

Powered by Discuz! X3.4

Copyright © 2001-2020, Tencent Cloud.

快速回复 返回顶部 返回列表