请选择 进入手机版 | 继续访问电脑版
本站原来Q群已取消,请原Q群会员和其他未入群会员加原盘天堂新官方QQ群713428235【盘盘多】,验证信息填写您在论坛的会员名,不填会员名的无法入群哈,进群后修改您的群名片名字为您在论坛的会员名,请务必修改,否则群成员多了不知道您是哪个会员,无法为您发送高速链接!

原盘天堂

 找回密码
 立即注册
查看: 85|回复: 8

2d蓝光原盘bdmv 猫狗大战3:爪爪集结! 英语原版 cats.dogs.3.paws.unite.2020.1080p.bluray.avc.dts-hd.ma.5.1[15.84 GB]

[复制链接]

5448

主题

5975

帖子

129万

积分

管理员

Rank: 18Rank: 18Rank: 18Rank: 18Rank: 18

积分
1295140
发表于 2020-10-9 09:42:27 | 显示全部楼层 |阅读模式








猫狗大战3:爪爪集结! Cats & Dogs 3: Paws Unite! (2020)

导演: 肖恩·麦克纳马拉
编剧: 斯科特·宾德利 / 约翰·里夸 / 格伦·费卡拉
主演: 莎拉·吉尔斯 / 马克思·格林菲尔德 / 乔治·洛佩兹 / 梅丽莎·劳奇 / Kirsten Robek / 更多...
类型: 喜剧 / 动作 / 奇幻
制片国家/地区: 美国
语言: 英语
上映日期: 2020-09-15(美国)
片长: 84分钟

豆瓣评分
4.5
257人评价
5星 2.4%
4星 5.7%
3星 24.6%
2星 49.3%
1星 18.0%

剧情简介 · · · · · ·
  距离第二部后猫狗休战已经过去10年了,猫狗两家共同发明了一种监控系统,维持和平化解冲突。然而当一只精通技术的鹦鹉出现,利用自己的“黑客”技术入侵,并使用猫和狗才能听到的频率来操控它们,世界各地再度爆发猫狗大战!于是,一群没有经验的新手猫狗特工要用最原始的方式来恢复和平。

DISC INFO:

Disc Title:     Cats.Dogs.3.Paws.Unite.2020.1080p.BluRay.AVC.DTS-HD.MA.5.1-FGT
Disc Size:      17,008,640,873 bytes
Protection:     AACS
Extras:         BD-Java
BDInfo:         0.7.5.9 (compatible layout created by DVDFab 11.1.0.7)

PLAYLIST REPORT:

Name:                   00800.MPLS  
Length:                 1:24:07.751 (h:m:s.ms)
Size:                   14,514,413,568 bytes
Total Bitrate:          23.00 Mbps

VIDEO:

Codec                   Bitrate             Description     
-----                   -------             -----------     
MPEG-4 AVC Video        15050 kbps          1080p / 23.976 fps / 16:9 / High Profile 4.1

AUDIO:

Codec                           Language        Bitrate         Description     
-----                           --------        -------         -----------     
DTS-HD Master Audio             English         2256 kbps       5.1 / 48 kHz / 2256 kbps / 16-bit (DTS Core: 5.1 / 48 kHz / 1509 kbps / 16-bit)
Dolby Digital Audio             French          640 kbps        5.1 / 48 kHz / 640 kbps
Dolby Digital Audio             Spanish         640 kbps        5.1 / 48 kHz / 640 kbps
Dolby Digital Audio             Danish          640 kbps        5.1 / 48 kHz / 640 kbps
Dolby Digital Audio             Finnish         640 kbps        5.1 / 48 kHz / 640 kbps
Dolby Digital Audio             Norwegian       640 kbps        5.1 / 48 kHz / 640 kbps
Dolby Digital Audio             Swedish         640 kbps        5.1 / 48 kHz / 640 kbps

SUBTITLES:

Codec                           Language        Bitrate         Description     
-----                           --------        -------         -----------     
Presentation Graphics           English         46.252 kbps                     
Presentation Graphics           French          33.598 kbps                     
Presentation Graphics           Spanish         37.712 kbps                     
Presentation Graphics           Danish          36.906 kbps                     
Presentation Graphics           Finnish         37.632 kbps                     
Presentation Graphics           Norwegian       32.002 kbps                     
Presentation Graphics           Swedish         35.422 kbps                     
Presentation Graphics           Spanish         0.861 kbps                     
Presentation Graphics           Danish          0.365 kbps                     
Presentation Graphics           Finnish         0.203 kbps                     
Presentation Graphics           Norwegian       0.725 kbps                     
Presentation Graphics           Swedish         0.067 kbps               

Video
ID : 1
ID in the original source medium : 4113 (0x1011)
Format : AVC
Format/Info : Advanced Video Codec
Format profile : [email protected]
Format settings : CABAC / 4 Ref Frames
Format settings, CABAC : Yes
Format settings, Reference frames : 4 frames
Codec ID : V_MPEG4/ISO/AVC
Duration : 1 h 24 min
Bit rate mode : Variable
Bit rate : 14.8 Mb/s
Maximum bit rate : 38.0 Mb/s
Width : 1 920 pixels
Height : 1 080 pixels
Display aspect ratio : 16:9
Frame rate mode : Constant
Frame rate : 23.976 (24000/1001) FPS
Color space : YUV
Chroma subsampling : 4:2:0
Bit depth : 8 bits
Scan type : Progressive
Bits/(Pixel*Frame) : 0.299
Stream size : 8.72 GiB (70%)
Title : Cats.Dogs.3.Paws.Unite.2020.1080p.BluRay.REMUX.AVC.DTS-HD.MA.5.1-FGT
Language : English
Default : No
Forced : No
Original source medium : Blu-ray

Audio #1
ID : 2
ID in the original source medium : 4352 (0x1100)
Format : DTS XLL
Format/Info : Digital Theater Systems
Commercial name : DTS-HD Master Audio
Codec ID : A_DTS
Duration : 1 h 24 min
Bit rate mode : Variable
Bit rate : 2 256 kb/s
Channel(s) : 6 channels
Channel layout : C L R Ls Rs LFE
Sampling rate : 48.0 kHz
Frame rate : 93.750 FPS (512 SPF)
Bit depth : 16 bits
Compression mode : Lossless
Stream size : 1.33 GiB (11%)
Title : Cats.Dogs.3.Paws.Unite.2020.1080p.BluRay.REMUX.AVC.DTS-HD.MA.5.1-FGT
Language : English
Default : Yes
Forced : No
Original source medium : Blu-ray

Audio #2
ID : 3
ID in the original source medium : 4353 (0x1101)
Format : AC-3
Format/Info : Audio Coding 3
Commercial name : Dolby Digital
Codec ID : A_AC3
Duration : 1 h 24 min
Bit rate mode : Constant
Bit rate : 640 kb/s
Channel(s) : 6 channels
Channel layout : L R C LFE Ls Rs
Sampling rate : 48.0 kHz
Frame rate : 31.250 FPS (1536 SPF)
Compression mode : Lossy
Stream size : 385 MiB (3%)
Title : Cats.Dogs.3.Paws.Unite.2020.1080p.BluRay.REMUX.AVC.DTS-HD.MA.5.1-FGT
Language : French
Service kind : Complete Main
Default : No
Forced : No
Original source medium : Blu-ray

Audio #3
ID : 4
ID in the original source medium : 4354 (0x1102)
Format : AC-3
Format/Info : Audio Coding 3
Commercial name : Dolby Digital
Codec ID : A_AC3
Duration : 1 h 24 min
Bit rate mode : Constant
Bit rate : 640 kb/s
Channel(s) : 6 channels
Channel layout : L R C LFE Ls Rs
Sampling rate : 48.0 kHz
Frame rate : 31.250 FPS (1536 SPF)
Compression mode : Lossy
Stream size : 385 MiB (3%)
Title : Cats.Dogs.3.Paws.Unite.2020.1080p.BluRay.REMUX.AVC.DTS-HD.MA.5.1-FGT
Language : Spanish
Service kind : Complete Main
Default : No
Forced : No
Original source medium : Blu-ray

Audio #4
ID : 5
ID in the original source medium : 4355 (0x1103)
Format : AC-3
Format/Info : Audio Coding 3
Commercial name : Dolby Digital
Codec ID : A_AC3
Duration : 1 h 24 min
Bit rate mode : Constant
Bit rate : 640 kb/s
Channel(s) : 6 channels
Channel layout : L R C LFE Ls Rs
Sampling rate : 48.0 kHz
Frame rate : 31.250 FPS (1536 SPF)
Compression mode : Lossy
Stream size : 385 MiB (3%)
Title : Cats.Dogs.3.Paws.Unite.2020.1080p.BluRay.REMUX.AVC.DTS-HD.MA.5.1-FGT
Language : Danish
Service kind : Complete Main
Default : No
Forced : No
Original source medium : Blu-ray

Audio #5
ID : 6
ID in the original source medium : 4356 (0x1104)
Format : AC-3
Format/Info : Audio Coding 3
Commercial name : Dolby Digital
Codec ID : A_AC3
Duration : 1 h 24 min
Bit rate mode : Constant
Bit rate : 640 kb/s
Channel(s) : 6 channels
Channel layout : L R C LFE Ls Rs
Sampling rate : 48.0 kHz
Frame rate : 31.250 FPS (1536 SPF)
Compression mode : Lossy
Stream size : 385 MiB (3%)
Title : Cats.Dogs.3.Paws.Unite.2020.1080p.BluRay.REMUX.AVC.DTS-HD.MA.5.1-FGT
Language : Finnish
Service kind : Complete Main
Default : No
Forced : No
Original source medium : Blu-ray

Audio #6
ID : 7
ID in the original source medium : 4357 (0x1105)
Format : AC-3
Format/Info : Audio Coding 3
Commercial name : Dolby Digital
Codec ID : A_AC3
Duration : 1 h 24 min
Bit rate mode : Constant
Bit rate : 640 kb/s
Channel(s) : 6 channels
Channel layout : L R C LFE Ls Rs
Sampling rate : 48.0 kHz
Frame rate : 31.250 FPS (1536 SPF)
Compression mode : Lossy
Stream size : 385 MiB (3%)
Title : Cats.Dogs.3.Paws.Unite.2020.1080p.BluRay.REMUX.AVC.DTS-HD.MA.5.1-FGT
Language : Norwegian
Service kind : Complete Main
Default : No
Forced : No
Original source medium : Blu-ray

Audio #7
ID : 8
ID in the original source medium : 4358 (0x1106)
Format : AC-3
Format/Info : Audio Coding 3
Commercial name : Dolby Digital
Codec ID : A_AC3
Duration : 1 h 24 min
Bit rate mode : Constant
Bit rate : 640 kb/s
Channel(s) : 6 channels
Channel layout : L R C LFE Ls Rs
Sampling rate : 48.0 kHz
Frame rate : 31.250 FPS (1536 SPF)
Compression mode : Lossy
Stream size : 385 MiB (3%)
Title : Cats.Dogs.3.Paws.Unite.2020.1080p.BluRay.REMUX.AVC.DTS-HD.MA.5.1-FGT
Language : Swedish
Service kind : Complete Main
Default : No
Forced : No
Original source medium : Blu-ray

Text #1
ID : 9
Format : UTF-8
Codec ID : S_TEXT/UTF8
Codec ID/Info : UTF-8 Plain Text
Duration : 1 h 22 min
Bit rate : 72 b/s
Count of elements : 1224
Stream size : 43.5 KiB (0%)
Title : English-SRT
Language : English
Default : Yes
Forced : No

Text #2
ID : 10
ID in the original source medium : 4608 (0x1200)
Format : PGS
Muxing mode : zlib
Codec ID : S_HDMV/PGS
Codec ID/Info : Picture based subtitle format used on BDs/HD-DVDs
Duration : 1 h 23 min
Bit rate : 46.7 kb/s
Count of elements : 2776
Stream size : 27.8 MiB (0%)
Title : English-PGS
Language : English
Default : No
Forced : No
Original source medium : Blu-ray

Text #3
ID : 11
ID in the original source medium : 4609 (0x1201)
Format : PGS
Muxing mode : zlib
Codec ID : S_HDMV/PGS
Codec ID/Info : Picture based subtitle format used on BDs/HD-DVDs
Duration : 1 h 23 min
Bit rate : 33.7 kb/s
Count of elements : 2214
Stream size : 20.2 MiB (0%)
Title : French-PGS
Language : French
Default : No
Forced : No
Original source medium : Blu-ray

Text #4
ID : 12
ID in the original source medium : 4610 (0x1202)
Format : PGS
Muxing mode : zlib
Codec ID : S_HDMV/PGS
Codec ID/Info : Picture based subtitle format used on BDs/HD-DVDs
Duration : 1 h 23 min
Bit rate : 37.9 kb/s
Count of elements : 2300
Stream size : 22.7 MiB (0%)
Title : Spanish-PGS
Language : Spanish
Default : No
Forced : No
Original source medium : Blu-ray

Text #5
ID : 13
ID in the original source medium : 4611 (0x1203)
Format : PGS
Muxing mode : zlib
Codec ID : S_HDMV/PGS
Codec ID/Info : Picture based subtitle format used on BDs/HD-DVDs
Duration : 1 h 23 min
Bit rate : 37.0 kb/s
Count of elements : 2308
Stream size : 22.2 MiB (0%)
Title : Danish-PGS
Language : Danish
Default : No
Forced : No
Original source medium : Blu-ray

Text #6
ID : 14
ID in the original source medium : 4612 (0x1204)
Format : PGS
Muxing mode : zlib
Codec ID : S_HDMV/PGS
Codec ID/Info : Picture based subtitle format used on BDs/HD-DVDs
Duration : 1 h 23 min
Bit rate : 37.8 kb/s
Count of elements : 2164
Stream size : 22.6 MiB (0%)
Title : Finnish-PGS
Language : Finnish
Default : No
Forced : No
Original source medium : Blu-ray

Text #7
ID : 15
ID in the original source medium : 4613 (0x1205)
Format : PGS
Muxing mode : zlib
Codec ID : S_HDMV/PGS
Codec ID/Info : Picture based subtitle format used on BDs/HD-DVDs
Duration : 1 h 23 min
Bit rate : 32.1 kb/s
Count of elements : 1888
Stream size : 19.3 MiB (0%)
Title : Norwegian-PGS
Language : Norwegian
Default : No
Forced : No
Original source medium : Blu-ray

Text #8
ID : 16
ID in the original source medium : 4614 (0x1206)
Format : PGS
Muxing mode : zlib
Codec ID : S_HDMV/PGS
Codec ID/Info : Picture based subtitle format used on BDs/HD-DVDs
Duration : 1 h 23 min
Bit rate : 35.6 kb/s
Count of elements : 2290
Stream size : 21.3 MiB (0%)
Title : Swedish-PGS
Language : Swedish
Default : No
Forced : No
Original source medium : Blu-ray

Text #9
ID : 17
ID in the original source medium : 4615 (0x1207)
Format : PGS
Muxing mode : zlib
Codec ID : S_HDMV/PGS
Codec ID/Info : Picture based subtitle format used on BDs/HD-DVDs
Duration : 1 h 16 min
Bit rate : 948 b/s
Count of elements : 64
Stream size : 531 KiB (0%)
Title : Spanish-FORCED-PGS
Language : Spanish
Default : No
Forced : No
Original source medium : Blu-ray

Text #10
ID : 18
ID in the original source medium : 4616 (0x1208)
Format : PGS
Muxing mode : zlib
Codec ID : S_HDMV/PGS
Codec ID/Info : Picture based subtitle format used on BDs/HD-DVDs
Duration : 1 h 4 min
Bit rate : 479 b/s
Count of elements : 36
Stream size : 225 KiB (0%)
Title : Danish-FORCED_PGS
Language : Danish
Default : No
Forced : No
Original source medium : Blu-ray

Text #11
ID : 19
ID in the original source medium : 4617 (0x1209)
Format : PGS
Muxing mode : zlib
Codec ID : S_HDMV/PGS
Codec ID/Info : Picture based subtitle format used on BDs/HD-DVDs
Duration : 1 h 5 min
Bit rate : 260 b/s
Count of elements : 20
Stream size : 125 KiB (0%)
Title : Finnish-FORCED-PGS
Language : Finnish
Default : No
Forced : No
Original source medium : Blu-ray

Text #12
ID : 20
ID in the original source medium : 4618 (0x120A)
Format : PGS
Muxing mode : zlib
Codec ID : S_HDMV/PGS
Codec ID/Info : Picture based subtitle format used on BDs/HD-DVDs
Duration : 1 h 16 min
Bit rate : 799 b/s
Count of elements : 56
Stream size : 447 KiB (0%)
Title : Norwegian-FORCED-PGS
Language : Norwegian
Default : No
Forced : No
Original source medium : Blu-ray

Text #13
ID : 21
ID in the original source medium : 4619 (0x120B)
Format : PGS
Muxing mode : zlib
Codec ID : S_HDMV/PGS
Codec ID/Info : Picture based subtitle format used on BDs/HD-DVDs
Duration : 53 min 47 s
Bit rate : 104 b/s
Count of elements : 6
Stream size : 41.1 KiB (0%)
Title : Swedish-FORCED-PGS
Language : Swedish
Default : No
Forced : No
Original source medium : Blu-ray

Menu
00:00:00.000 : en:Chapter 01
00:07:39.542 : en:Chapter 02
00:14:19.608 : en:Chapter 03
00:21:28.537 : en:Chapter 04
00:30:17.357 : en:Chapter 05
00:37:14.065 : en:Chapter 06
00:44:49.978 : en:Chapter 07
00:54:02.822 : en:Chapter 08
01:01:09.499 : en:Chapter 09
01:07:51.859 : en:Chapter 10
01:13:19.978 : en:Chapter 11
01:19:26.678 : en:Chapter 12

本帖子中包含更多资源

您需要 登录 才可以下载或查看,没有帐号?立即注册

x
回复

使用道具 举报

0

主题

452

帖子

2607

积分

金牌会员

Rank: 6Rank: 6

积分
2607
发表于 2020-10-9 09:51:48 | 显示全部楼层
多谢楼主分享
回复

使用道具 举报

0

主题

695

帖子

5502

积分

VIP永久

Rank: 12Rank: 12Rank: 12

积分
5502
发表于 2020-10-9 18:38:37 | 显示全部楼层
感谢楼主分享!!!
回复

使用道具 举报

0

主题

679

帖子

5181

积分

论坛元老

Rank: 8Rank: 8

积分
5181
发表于 2020-10-12 05:27:06 | 显示全部楼层
感谢楼主分享
回复

使用道具 举报

0

主题

452

帖子

2607

积分

金牌会员

Rank: 6Rank: 6

积分
2607
发表于 2020-10-14 22:27:08 | 显示全部楼层
谢谢楼主分享
回复

使用道具 举报

0

主题

1253

帖子

7145

积分

论坛元老

Rank: 8Rank: 8

积分
7145
发表于 2020-10-15 11:40:34 | 显示全部楼层
谢谢楼主分享
回复

使用道具 举报

0

主题

737

帖子

3206

积分

论坛元老

Rank: 8Rank: 8

积分
3206
发表于 2020-10-15 14:47:01 | 显示全部楼层
感谢楼主分享高清影片
回复

使用道具 举报

0

主题

180

帖子

963

积分

高级会员

Rank: 4

积分
963
发表于 2020-10-19 10:22:03 | 显示全部楼层
谢谢分享
回复

使用道具 举报

0

主题

172

帖子

958

积分

高级会员

Rank: 4

积分
958
发表于 6 天前 | 显示全部楼层
感谢楼主分享高清影片
回复

使用道具 举报

您需要登录后才可以回帖 登录 | 立即注册

本版积分规则

QQ|Archiver|手机版|小黑屋|原盘天堂 盘盘多 点击这里给我发消息

GMT+8, 2020-10-27 09:21 , Processed in 0.069797 second(s), 25 queries .

Powered by Discuz! X3.4

Copyright © 2001-2020, Tencent Cloud.

快速回复 返回顶部 返回列表