请选择 进入手机版 | 继续访问电脑版
本站原来Q群已取消,请原Q群会员和其他未入群会员加原盘天堂新官方QQ群713428235【盘盘多】,验证信息填写您在论坛的会员名,不填会员名的无法入群哈,进群后修改您的群名片名字为您在论坛的会员名,请务必修改,否则群成员多了不知道您是哪个会员,无法为您发送高速链接!

原盘天堂

 找回密码
 立即注册
查看: 102|回复: 3

2d蓝光原盘bdmv 收税人 英语原版 the.tax.collector.2020.1080p.bluray.avc.dts-hd.ma.5.1[20.21 GB]

[复制链接]

5448

主题

5975

帖子

129万

积分

管理员

Rank: 18Rank: 18Rank: 18Rank: 18Rank: 18

积分
1295140
发表于 2020-10-5 21:53:21 | 显示全部楼层 |阅读模式








收税人 The Tax Collector (2020)

导演: 大卫·阿耶
编剧: 大卫·阿耶
主演: 希亚·拉博夫 / 拉娜·帕瑞娅 / 辛西娅·卡蒙娜 / 艾尔皮迪娅·卡里洛 / 乔治·洛佩兹 / 更多...
类型: 剧情 / 惊悚 / 犯罪
制片国家/地区: 美国
语言: 英语
上映日期: 2020-08-07(美国)
片长: 95分钟
又名: 收账人 / Tax Collector

豆瓣评分
4.7
249人评价
5星 4.4%
4星 7.3%
3星 28.2%
2星 40.8%
1星 19.4%

剧情简介 · · · · · ·
  Shia LaBeouf将与David Ayer再度合作《收税人》。
  电影讲述男主角大卫·奎瓦斯(David Cuevas),他是一个看重家庭的男人,但工作却是为洛城黑帮高层收税的收账人。他与搭档Creeper穿梭于城市之间收账,用各种方法逼人们掏钱,而欠账的则会受到残忍的报复。然而,一位旧日敌人的归来让奎瓦斯所爱的一切都陷入危险之中。


DISC INFO:

Disc Title:     The.Tax.Collector.2020.1080p.BluRay.AVC.DTS-HD.MA5.1-FGT
Disc Size:      21,697,179,143 bytes
Protection:     AACS
Extras:         BD-Java
BDInfo:         0.7.5.9 (compatible layout created by DVDFab 11.1.0.7)

PLAYLIST REPORT:

Name:                   00020.MPLS  
Length:                 1:35:15.666 (h:m:s.ms)
Size:                   18,456,993,792 bytes
Total Bitrate:          25.83 Mbps

VIDEO:

Codec                   Bitrate             Description     
-----                   -------             -----------     
MPEG-4 AVC Video        20981 kbps          1080p / 24 fps / 16:9 / High Profile 4.1

AUDIO:

Codec                           Language        Bitrate         Description     
-----                           --------        -------         -----------     
DTS-HD Master Audio             English         3426 kbps       5.1 / 48 kHz / 3426 kbps / 24-bit (DTS Core: 5.1 / 48 kHz / 1509 kbps / 24-bit)

SUBTITLES:

Codec                           Language        Bitrate         Description     
-----                           --------        -------         -----------     
Presentation Graphics           English         1.362 kbps                     
Presentation Graphics           English         24.622 kbps                     
Presentation Graphics           Spanish         19.052 kbps        

Video
ID : 1
ID in the original source medium : 4113 (0x1011)
Format : AVC
Format/Info : Advanced Video Codec
Format profile : [email protected]
Format settings : CABAC / 4 Ref Frames
Format settings, CABAC : Yes
Format settings, Reference frames : 4 frames
Codec ID : V_MPEG4/ISO/AVC
Duration : 1 h 35 min
Bit rate mode : Variable
Bit rate : 20.9 Mb/s
Maximum bit rate : 36.0 Mb/s
Width : 1 920 pixels
Height : 1 080 pixels
Display aspect ratio : 16:9
Frame rate mode : Constant
Frame rate : 24.000 FPS
Color space : YUV
Chroma subsampling : 4:2:0
Bit depth : 8 bits
Scan type : Progressive
Bits/(Pixel*Frame) : 0.420
Stream size : 13.9 GiB (86%)
Title : The.Tax.Collector.2020.1080p.BluRay.REMUX.AVC.DTS-HD.MA5.1-FGT
Language : English
Default : No
Forced : No
Original source medium : Blu-ray

Audio
ID : 2
ID in the original source medium : 4352 (0x1100)
Format : DTS XLL
Format/Info : Digital Theater Systems
Commercial name : DTS-HD Master Audio
Codec ID : A_DTS
Duration : 1 h 35 min
Bit rate mode : Variable
Bit rate : 3 426 kb/s
Channel(s) : 6 channels
Channel layout : C L R Ls Rs LFE
Sampling rate : 48.0 kHz
Frame rate : 93.750 FPS (512 SPF)
Bit depth : 24 bits
Compression mode : Lossless
Stream size : 2.28 GiB (14%)
Title : The.Tax.Collector.2020.1080p.BluRay.REMUX.AVC.DTS-HD.MA5.1-FGT
Language : English
Default : Yes
Forced : No
Original source medium : Blu-ray

Text #1
ID : 3
Format : UTF-8
Codec ID : S_TEXT/UTF8
Codec ID/Info : UTF-8 Plain Text
Duration : 1 h 14 min
Bit rate : 4 b/s
Count of elements : 81
Stream size : 2.21 KiB (0%)
Title : English-FORCED-SRT
Language : English
Default : Yes
Forced : Yes

Text #2
ID : 4
Format : UTF-8
Codec ID : S_TEXT/UTF8
Codec ID/Info : UTF-8 Plain Text
Duration : 1 h 28 min
Bit rate : 60 b/s
Count of elements : 1278
Stream size : 39.1 KiB (0%)
Title : English-SRT
Language : English
Default : No
Forced : No

Text #3
ID : 5
ID in the original source medium : 4608 (0x1200)
Format : PGS
Muxing mode : zlib
Codec ID : S_HDMV/PGS
Codec ID/Info : Picture based subtitle format used on BDs/HD-DVDs
Duration : 1 h 14 min
Bit rate : 1 744 b/s
Count of elements : 162
Stream size : 950 KiB (0%)
Title : English-FORCED-PGS
Language : English
Default : No
Forced : No
Original source medium : Blu-ray

Text #4
ID : 6
ID in the original source medium : 4609 (0x1201)
Format : PGS
Muxing mode : zlib
Codec ID : S_HDMV/PGS
Codec ID/Info : Picture based subtitle format used on BDs/HD-DVDs
Duration : 1 h 28 min
Bit rate : 26.5 kb/s
Count of elements : 2670
Stream size : 16.8 MiB (0%)
Title : English-PGS
Language : English
Default : No
Forced : No
Original source medium : Blu-ray

Text #5
ID : 7
ID in the original source medium : 4610 (0x1202)
Format : PGS
Muxing mode : zlib
Codec ID : S_HDMV/PGS
Codec ID/Info : Picture based subtitle format used on BDs/HD-DVDs
Duration : 1 h 28 min
Bit rate : 20.6 kb/s
Count of elements : 2240
Stream size : 13.0 MiB (0%)
Title : Spanish-PGS
Language : Spanish
Default : No
Forced : No
Original source medium : Blu-ray

Menu
00:00:00.000 : en:Chapter 01
00:12:39.625 : en:Chapter 02
00:25:28.041 : en:Chapter 03
00:36:20.541 : en:Chapter 04
00:48:56.083 : en:Chapter 05
01:00:03.041 : en:Chapter 06
01:15:27.833 : en:Chapter 07
01:30:18.791 : en:Chapter 08

本帖子中包含更多资源

您需要 登录 才可以下载或查看,没有帐号?立即注册

x
回复

使用道具 举报

0

主题

695

帖子

5502

积分

VIP永久

Rank: 12Rank: 12Rank: 12

积分
5502
发表于 2020-10-7 18:11:40 | 显示全部楼层
感谢楼主分享!!!
回复

使用道具 举报

0

主题

737

帖子

3206

积分

论坛元老

Rank: 8Rank: 8

积分
3206
发表于 2020-10-7 20:53:40 | 显示全部楼层
感谢楼主分享高清影片
回复

使用道具 举报

0

主题

15

帖子

69

积分

注册会员

Rank: 2

积分
69
发表于 4 天前 | 显示全部楼层
谢楼主分享
回复

使用道具 举报

您需要登录后才可以回帖 登录 | 立即注册

本版积分规则

QQ|Archiver|手机版|小黑屋|原盘天堂 盘盘多 点击这里给我发消息

GMT+8, 2020-10-27 09:07 , Processed in 0.066464 second(s), 24 queries .

Powered by Discuz! X3.4

Copyright © 2001-2020, Tencent Cloud.

快速回复 返回顶部 返回列表