请选择 进入手机版 | 继续访问电脑版
本站原来Q群已取消,请原Q群会员和其他未入群会员加原盘天堂新官方QQ群713428235【盘盘多】,验证信息填写您在论坛的会员名,不填会员名的无法入群哈,进群后修改您的群名片名字为您在论坛的会员名,请务必修改,否则群成员多了不知道您是哪个会员,无法为您发送高速链接!

原盘天堂

 找回密码
 立即注册
查看: 134|回复: 9

4k蓝光原盘bdmv 罗伯特·布鲁斯 英语原版 robert.the.bruce.2019.2160p.bluray.hevc.dts-hd.ma.5.1[54.9 GB]

[复制链接]

5448

主题

5975

帖子

129万

积分

管理员

Rank: 18Rank: 18Rank: 18Rank: 18Rank: 18

积分
1295117
发表于 2020-10-5 08:08:55 | 显示全部楼层 |阅读模式






罗伯特·布鲁斯 Robert the Bruce (2019)

导演: 理查德·格雷
编剧: Eric Belgau / 安古斯·麦克菲登
主演: 艾玛·肯尼 / 扎克·麦克格温 / 杰瑞德·哈里斯 / 派屈克·福吉特 / 凯文·麦克纳利 / 更多...
类型: 历史
制片国家/地区: 美国
语言: 英语
上映日期: 2019-06-28(英国)
片长: 124分钟
又名: 苏格兰之王 布鲁斯一世

剧情简介 · · · · · ·
  The story of nobleman-turned-outlaw hero who was crowned king of Scots in the 14th century.
DISC INFO:

Disc Title:     Robert.the.Bruce.2019.2160p.BluRay.HEVC.DTS-HD.MA.5.1-pmHD
Disc Size:      58,934,095,469 bytes
Protection:     AACS2
Extras:         Ultra HD
BDInfo:         0.7.5.9 (compatible layout created by DVDFab 11.1.0.7)

PLAYLIST REPORT:

Name:                   00001.MPLS  
Length:                 2:03:36.742 (h:m:s.ms)
Size:                   57,573,629,952 bytes
Total Bitrate:          62.10 Mbps

(*) Indicates included stream hidden by this playlist.

VIDEO:

Codec                   Bitrate             Description     
-----                   -------             -----------     
MPEG-H HEVC Video       53950 kbps          2160p / 23.976 fps / 16:9 / Main 10 @ Level 5.1 @ High / 4:2:0 / 10 bits / 1000nits / HDR10+ v1 Profile B / BT.2020

AUDIO:

Codec                           Language        Bitrate         Description     
-----                           --------        -------         -----------     
DTS-HD Master Audio             German          2429 kbps       5.1 / 48 kHz / 2429 kbps / 16-bit (DTS Core: 5.1 / 48 kHz / 1509 kbps / 16-bit)
DTS-HD Master Audio             English         2353 kbps       5.1 / 48 kHz / 2353 kbps / 16-bit (DTS Core: 5.1 / 48 kHz / 1509 kbps / 16-bit)
* Dolby Digital Audio           English         224 kbps        2.0 / 48 kHz / 224 kbps

SUBTITLES:

Codec                           Language        Bitrate         Description     
-----                           --------        -------         -----------     
Presentation Graphics           German          26.975 kbps     

Video
ID : 1
ID in the original source medium : 4113 (0x1011)
Format : HEVC
Format/Info : High Efficiency Video Coding
Format profile : Main [email protected]@High
HDR format : SMPTE ST 2094 App 4, Version 1, HDR10+ Profile B compatible
Codec ID : V_MPEGH/ISO/HEVC
Duration : 2 h 3 min
Bit rate : 53.9 Mb/s
Width : 3 840 pixels
Height : 2 160 pixels
Display aspect ratio : 16:9
Frame rate mode : Constant
Frame rate : 23.976 (24000/1001) FPS
Color space : YUV
Chroma subsampling : 4:2:0 (Type 2)
Bit depth : 10 bits
Bits/(Pixel*Frame) : 0.271
Stream size : 46.6 GiB (92%)
Title : Robert.the.Bruce.2019.2160p.BluRay.REMUX.HEVC.DTS-HD.MA.5.1-FGT
Language : English
Default : No
Forced : No
Color range : Limited
Color primaries : BT.2020
Transfer characteristics : PQ
Matrix coefficients : BT.2020 non-constant
Mastering display color primaries : Display P3
Mastering display luminance : min: 0.0050 cd/m2, max: 1000 cd/m2
Maximum Content Light Level : 1000 cd/m2
Maximum Frame-Average Light Level : 400 cd/m2
Original source medium : Blu-ray

Audio #1
ID : 2
ID in the original source medium : 4353 (0x1101)
Format : DTS XLL
Format/Info : Digital Theater Systems
Commercial name : DTS-HD Master Audio
Codec ID : A_DTS
Duration : 2 h 3 min
Bit rate mode : Variable
Bit rate : 2 353 kb/s
Channel(s) : 6 channels
Channel layout : C L R Ls Rs LFE
Sampling rate : 48.0 kHz
Frame rate : 93.750 FPS (512 SPF)
Bit depth : 16 bits
Compression mode : Lossless
Stream size : 2.03 GiB (4%)
Title : Robert.the.Bruce.2019.2160p.BluRay.REMUX.HEVC.DTS-HD.MA.5.1-FGT
Language : English
Default : Yes
Forced : No
Original source medium : Blu-ray

Audio #2
ID : 3
ID in the original source medium : 4352 (0x1100)
Format : DTS XLL
Format/Info : Digital Theater Systems
Commercial name : DTS-HD Master Audio
Codec ID : A_DTS
Duration : 2 h 3 min
Bit rate mode : Variable
Bit rate : 2 429 kb/s
Channel(s) : 6 channels
Channel layout : C L R Ls Rs LFE
Sampling rate : 48.0 kHz
Frame rate : 93.750 FPS (512 SPF)
Bit depth : 16 bits
Compression mode : Lossless
Stream size : 2.10 GiB (4%)
Title : Robert.the.Bruce.2019.2160p.BluRay.REMUX.HEVC.DTS-HD.MA.5.1-FGT
Language : German
Default : No
Forced : No
Original source medium : Blu-ray

Text #1
ID : 4
Format : UTF-8
Codec ID : S_TEXT/UTF8
Codec ID/Info : UTF-8 Plain Text
Duration : 1 h 54 min
Bit rate : 37 b/s
Count of elements : 1279
Stream size : 31.6 KiB (0%)
Title : English-SRT
Language : English
Default : Yes
Forced : No

Text #2
ID : 5
ID in the original source medium : 4768 (0x12A0)
Format : PGS
Muxing mode : zlib
Codec ID : S_HDMV/PGS
Codec ID/Info : Picture based subtitle format used on BDs/HD-DVDs
Duration : 1 h 54 min
Bit rate : 29.1 kb/s
Count of elements : 2046
Stream size : 23.8 MiB (0%)
Title : German-PGS
Language : German
Default : No
Forced : No
Original source medium : Blu-ray

Menu
00:00:00.000 : en:Chapter 01
00:10:30.171 : en:Chapter 02
00:19:11.984 : en:Chapter 03
00:31:11.411 : en:Chapter 04
00:39:13.184 : en:Chapter 05
00:49:06.693 : en:Chapter 06
00:59:19.180 : en:Chapter 07
01:08:44.703 : en:Chapter 08
01:19:05.407 : en:Chapter 09
01:28:37.312 : en:Chapter 10
01:38:22.897 : en:Chapter 11
01:48:25.832 : en:Chapter 12

本帖子中包含更多资源

您需要 登录 才可以下载或查看,没有帐号?立即注册

x
回复

使用道具 举报

0

主题

737

帖子

3206

积分

论坛元老

Rank: 8Rank: 8

积分
3206
发表于 2020-10-5 15:04:44 | 显示全部楼层
感谢楼主分享高清影片
回复

使用道具 举报

0

主题

452

帖子

2607

积分

金牌会员

Rank: 6Rank: 6

积分
2607
发表于 2020-10-5 21:34:47 | 显示全部楼层
感谢楼主分享
回复

使用道具 举报

0

主题

183

帖子

1478

积分

金牌会员

Rank: 6Rank: 6

积分
1478
发表于 2020-10-6 16:52:50 | 显示全部楼层
楼主太给力了,这个资源找了很久,果断下载欣赏
回复

使用道具 举报

0

主题

695

帖子

5502

积分

VIP永久

Rank: 12Rank: 12Rank: 12

积分
5502
发表于 2020-10-7 18:11:14 | 显示全部楼层
感谢楼主分享!!!
回复

使用道具 举报

0

主题

314

帖子

1439

积分

金牌会员

Rank: 6Rank: 6

积分
1439
发表于 2020-10-10 09:53:49 | 显示全部楼层
thank you very much
回复

使用道具 举报

0

主题

143

帖子

1277

积分

金牌会员

Rank: 6Rank: 6

积分
1277
发表于 2020-10-10 15:05:50 | 显示全部楼层
谢谢楼主分享
回复

使用道具 举报

0

主题

679

帖子

5181

积分

论坛元老

Rank: 8Rank: 8

积分
5181
发表于 2020-10-13 05:29:41 | 显示全部楼层
谢楼主分享
回复

使用道具 举报

0

主题

15

帖子

69

积分

注册会员

Rank: 2

积分
69
发表于 4 天前 | 显示全部楼层
谢楼主分享
回复

使用道具 举报

0

主题

91

帖子

475

积分

中级会员

Rank: 3Rank: 3

积分
475
发表于 3 天前 | 显示全部楼层
thank you very much
回复

使用道具 举报

您需要登录后才可以回帖 登录 | 立即注册

本版积分规则

QQ|Archiver|手机版|小黑屋|原盘天堂 盘盘多 点击这里给我发消息

GMT+8, 2020-10-27 08:07 , Processed in 0.070268 second(s), 24 queries .

Powered by Discuz! X3.4

Copyright © 2001-2020, Tencent Cloud.

快速回复 返回顶部 返回列表