请选择 进入手机版 | 继续访问电脑版
本站原来Q群已取消,请原Q群会员和其他未入群会员加原盘天堂新官方QQ群713428235【盘盘多】,验证信息填写您在论坛的会员名,不填会员名的无法入群哈,进群后修改您的群名片名字为您在论坛的会员名,请务必修改,否则群成员多了不知道您是哪个会员,无法为您发送高速链接!

原盘天堂

 找回密码
 立即注册
查看: 125|回复: 5

2d蓝光原盘bdmv 沉默 英语原版 the.silencing.2020.1080p.bluray.avc.dts-hd.ma.5.1[22.68 GB]

[复制链接]

5448

主题

5975

帖子

129万

积分

管理员

Rank: 18Rank: 18Rank: 18Rank: 18Rank: 18

积分
1295140
发表于 2020-10-3 13:17:34 | 显示全部楼层 |阅读模式








沉默 The Silencing (2020)

导演: 罗宾·普劳特
编剧: 米卡·拉纳姆
主演: 尼古拉·科斯特-瓦尔道 / 卡勒布·埃尔斯沃斯·克拉克 / 乔什·克鲁达斯 / 安娜贝拉·沃丽丝 / 扎恩·迈克拉农 / 更多...
类型: 动作 / 惊悚 / 犯罪
制片国家/地区: 加拿大 / 美国
语言: 英语
上映日期: 2020-07-16(美国)
片长: 94分钟
又名: 沉默不语

豆瓣评分
6.0
819人评价
5星 5.5%
4星 16.4%
3星 56.7%
2星 18.2%
1星 3.3%
好于 15% 犯罪片

剧情简介 · · · · · ·
  一位在野生动物保护区生活的猎人被迫卷入了一场致命的猫捉老鼠的游戏,他和当地治安官出发去追踪一名凶手,而凶手可能正是几年前绑架了他的女儿的神秘人。

DISC INFO:

Disc Title:     The.Silencing.2020.1080p.BluRay.AVC.DTS-HD.MA.5.1-FGT
Disc Size:      24,345,036,500 bytes
Protection:     AACS
Extras:         BD-Java
BDInfo:         0.7.5.9 (compatible layout created by DVDFab 11.1.0.7)

PLAYLIST REPORT:

Name:                   00800.MPLS  
Length:                 1:34:31.707 (h:m:s.ms)
Size:                   20,285,970,432 bytes
Total Bitrate:          28.61 Mbps

VIDEO:

Codec                   Bitrate             Description     
-----                   -------             -----------     
MPEG-4 AVC Video        23515 kbps          1080p / 23.976 fps / 16:9 / High Profile 4.1

AUDIO:

Codec                           Language        Bitrate         Description     
-----                           --------        -------         -----------     
DTS-HD Master Audio             English         3568 kbps       5.1 / 48 kHz / 3568 kbps / 24-bit (DTS Core: 5.1 / 48 kHz / 1509 kbps / 24-bit)

SUBTITLES:

Codec                           Language        Bitrate         Description     
-----                           --------        -------         -----------     
Presentation Graphics           English         20.075 kbps                     
Presentation Graphics           Spanish         16.758 kbps   

Video
ID : 1
ID in the original source medium : 4113 (0x1011)
Format : AVC
Format/Info : Advanced Video Codec
Format profile : [email protected]
Format settings : CABAC / 4 Ref Frames
Format settings, CABAC : Yes
Format settings, Reference frames : 4 frames
Format settings, GOP : M=3, N=12
Codec ID : V_MPEG4/ISO/AVC
Duration : 1 h 34 min
Bit rate mode : Variable
Bit rate : 23.2 Mb/s
Maximum bit rate : 37.0 Mb/s
Width : 1 920 pixels
Height : 1 080 pixels
Display aspect ratio : 16:9
Frame rate mode : Constant
Frame rate : 23.976 (24000/1001) FPS
Color space : YUV
Chroma subsampling : 4:2:0
Bit depth : 8 bits
Scan type : Progressive
Bits/(Pixel*Frame) : 0.467
Stream size : 15.3 GiB (87%)
Title : The.Silencing.2020.1080p.BluRay.REMUX.AVC.DTS-HD.MA.5.1-FGT
Language : English
Default : No
Forced : No
Original source medium : Blu-ray

Audio
ID : 2
ID in the original source medium : 4352 (0x1100)
Format : DTS XLL
Format/Info : Digital Theater Systems
Commercial name : DTS-HD Master Audio
Codec ID : A_DTS
Duration : 1 h 34 min
Bit rate mode : Variable
Bit rate : 3 568 kb/s
Channel(s) : 6 channels
Channel layout : C L R Ls Rs LFE
Sampling rate : 48.0 kHz
Frame rate : 93.750 FPS (512 SPF)
Bit depth : 24 bits
Compression mode : Lossless
Stream size : 2.36 GiB (13%)
Title : The.Silencing.2020.1080p.BluRay.REMUX.AVC.DTS-HD.MA.5.1-FGT
Language : English
Default : Yes
Forced : No
Original source medium : Blu-ray

Text #1
ID : 3
Format : UTF-8
Codec ID : S_TEXT/UTF8
Codec ID/Info : UTF-8 Plain Text
Duration : 1 h 25 min
Bit rate : 29 b/s
Count of elements : 657
Stream size : 18.3 KiB (0%)
Title : English-SRT
Language : English
Default : Yes
Forced : No

Text #2
ID : 4
ID in the original source medium : 4608 (0x1200)
Format : PGS
Muxing mode : zlib
Codec ID : S_HDMV/PGS
Codec ID/Info : Picture based subtitle format used on BDs/HD-DVDs
Duration : 1 h 25 min
Bit rate : 22.2 kb/s
Count of elements : 1662
Stream size : 13.6 MiB (0%)
Title : English-PGS
Language : English
Default : No
Forced : No
Original source medium : Blu-ray

Text #3
ID : 5
ID in the original source medium : 4609 (0x1201)
Format : PGS
Muxing mode : zlib
Codec ID : S_HDMV/PGS
Codec ID/Info : Picture based subtitle format used on BDs/HD-DVDs
Duration : 1 h 30 min
Bit rate : 17.5 kb/s
Count of elements : 1242
Stream size : 11.3 MiB (0%)
Title : Spanish-PGS
Language : Spanish
Default : No
Forced : No
Original source medium : Blu-ray

Menu
00:00:00.000 : en:Chapter 01
00:04:47.453 : en:Chapter 02
00:09:15.721 : en:Chapter 03
00:12:39.800 : en:Chapter 04
00:17:16.410 : en:Chapter 05
00:22:32.476 : en:Chapter 06
00:28:47.058 : en:Chapter 07
00:34:04.250 : en:Chapter 08
00:41:10.759 : en:Chapter 09
00:47:53.245 : en:Chapter 10
00:54:38.858 : en:Chapter 11
00:59:10.380 : en:Chapter 12
01:05:07.612 : en:Chapter 13
01:10:54.959 : en:Chapter 14
01:17:58.090 : en:Chapter 15
01:26:57.712 : en:Chapter 16

本帖子中包含更多资源

您需要 登录 才可以下载或查看,没有帐号?立即注册

x
回复

使用道具 举报

0

主题

14

帖子

69

积分

注册会员

Rank: 2

积分
69
发表于 2020-10-3 18:21:41 | 显示全部楼层
谢谢楼主分享!!!!!
回复

使用道具 举报

0

主题

695

帖子

5502

积分

VIP永久

Rank: 12Rank: 12Rank: 12

积分
5502
发表于 2020-10-7 18:10:46 | 显示全部楼层
感谢楼主分享!!!
回复

使用道具 举报

0

主题

737

帖子

3206

积分

论坛元老

Rank: 8Rank: 8

积分
3206
发表于 2020-10-7 20:55:06 | 显示全部楼层
感谢楼主分享高清影片
回复

使用道具 举报

0

主题

12

帖子

69

积分

注册会员

Rank: 2

积分
69
发表于 5 天前 | 显示全部楼层
感谢楼主
回复

使用道具 举报

0

主题

15

帖子

69

积分

注册会员

Rank: 2

积分
69
发表于 4 天前 | 显示全部楼层
谢楼主分享
回复

使用道具 举报

您需要登录后才可以回帖 登录 | 立即注册

本版积分规则

QQ|Archiver|手机版|小黑屋|原盘天堂 盘盘多 点击这里给我发消息

GMT+8, 2020-10-27 08:59 , Processed in 0.065801 second(s), 24 queries .

Powered by Discuz! X3.4

Copyright © 2001-2020, Tencent Cloud.

快速回复 返回顶部 返回列表