请选择 进入手机版 | 继续访问电脑版
本站原来Q群已取消,请原Q群会员和其他未入群会员加原盘天堂新官方QQ群713428235【盘盘多】,验证信息填写您在论坛的会员名,不填会员名的无法入群哈,进群后修改您的群名片名字为您在论坛的会员名,请务必修改,否则群成员多了不知道您是哪个会员,无法为您发送高速链接!

原盘天堂

 找回密码
 立即注册
查看: 103|回复: 5

2d蓝光原盘bdmv 宽恕 英语原版 sulphur.and.white.2020.1080p.bluray.avc.dts-hd.ma.5.1[37.68 GB]

[复制链接]

5448

主题

5975

帖子

129万

积分

管理员

Rank: 18Rank: 18Rank: 18Rank: 18Rank: 18

积分
1295117
发表于 2020-10-3 12:49:11 | 显示全部楼层 |阅读模式






宽恕 Sulphur And White (2020)

导演: 朱里安·杰拉德
编剧: Susie Farrell
主演: 马克·斯坦利 / 安娜·弗莱尔 / 多格雷·斯科特 / 艾米丽·比查姆 / 阿弗塔布·施夫达撒尼 / 更多...
类型: 剧情
制片国家/地区: 英国
语言: 英语
上映日期: 2020-03-06(英国)
片长: 120分钟
又名: Forgiveness

剧情简介 · · · · · ·
  我们都带着秘密层,经验片段,定义我们的小标记。大卫带着他的。他们朝他烧死。吃掉他的灵魂伦敦金融城,交易大厅,2008年。在一个竞争激烈的交易中,需要一个独特的人才能成功。一心一意无情的人,大卫就是这个人。但超越成功的光环是一个秘密。大卫有层...一旦被切开,门面后面是什么?当大卫爬上公司阶梯时,过去有可能崛起并吞没他。当他挣扎时,一个女人走进了他的生活。有很多,但瓦内萨是不同的 - 她很重要。大卫渴望抓住她,而她相信他们的未来。但是大卫能保守他过去的秘密吗?灵感来自城市商人和登山者大卫·泰特的生活,这是勇气战胜耻辱的鼓舞人心的故事。


DISC INFO:

Disc Title:     Sulphur.and.White.2020.1080p.BluRay.AVC.DTS-HD.MA.5.1-FGT
Disc Size:      40,460,024,881 bytes
Protection:     AACS
Extras:         50Hz Content
BDInfo:         0.7.5.9 (compatible layout created by DVDFab 11.1.0.7)

PLAYLIST REPORT:

Name:                   00000.MPLS  
Length:                 2:00:37.041 (h:m:s.ms)
Size:                   34,172,798,976 bytes
Total Bitrate:          37.78 Mbps

VIDEO:

Codec                   Bitrate             Description     
-----                   -------             -----------     
MPEG-4 AVC Video        32890 kbps          1080p / 24 fps / 16:9 / High Profile 4.1

AUDIO:

Codec                           Language        Bitrate         Description     
-----                           --------        -------         -----------     
DTS-HD Master Audio             English         1871 kbps       5.1 / 48 kHz / 1871 kbps / 16-bit (DTS Core: 5.1 / 48 kHz / 1509 kbps / 16-bit)
DTS-HD Master Audio             English         995 kbps        2.0 / 48 kHz / 995 kbps / 16-bit (DTS Core: 2.0 / 48 kHz / 768 kbps / 16-bit)

Video
ID : 1
ID in the original source medium : 4113 (0x1011)
Format : AVC
Format/Info : Advanced Video Codec
Format profile : [email protected]
Format settings : CABAC / 4 Ref Frames
Format settings, CABAC : Yes
Format settings, Reference frames : 4 frames
Format settings, GOP : M=3, N=24
Codec ID : V_MPEG4/ISO/AVC
Duration : 2 h 0 min
Bit rate mode : Variable
Bit rate : 32.9 Mb/s
Maximum bit rate : 35.0 Mb/s
Width : 1 920 pixels
Height : 1 080 pixels
Display aspect ratio : 16:9
Frame rate mode : Constant
Frame rate : 24.000 FPS
Standard : NTSC
Color space : YUV
Chroma subsampling : 4:2:0
Bit depth : 8 bits
Scan type : Progressive
Bits/(Pixel*Frame) : 0.661
Stream size : 27.7 GiB (92%)
Title : Sulphur.and.White.2020.1080p.BluRay.REMUX.AVC.DTS-HD.MA.5.1-FGT
Language : English
Default : No
Forced : No
Color range : Limited
Color primaries : BT.709
Transfer characteristics : BT.709
Matrix coefficients : BT.709
Original source medium : Blu-ray

Audio #1
ID : 2
ID in the original source medium : 4352 (0x1100)
Format : DTS XLL
Format/Info : Digital Theater Systems
Commercial name : DTS-HD Master Audio
Codec ID : A_DTS
Duration : 2 h 0 min
Bit rate mode : Variable
Bit rate : 1 871 kb/s
Channel(s) : 6 channels
Channel layout : C L R Ls Rs LFE
Sampling rate : 48.0 kHz
Frame rate : 93.750 FPS (512 SPF)
Bit depth : 16 bits
Compression mode : Lossless
Stream size : 1.58 GiB (5%)
Title : Sulphur.and.White.2020.1080p.BluRay.REMUX.AVC.DTS-HD.MA.5.1-FGT
Language : English
Default : Yes
Forced : No
Original source medium : Blu-ray

Audio #2
ID : 3
ID in the original source medium : 4353 (0x1101)
Format : DTS XLL
Format/Info : Digital Theater Systems
Commercial name : DTS-HD Master Audio
Codec ID : A_DTS
Duration : 2 h 0 min
Bit rate mode : Variable
Bit rate : 995 kb/s
Channel(s) : 2 channels
Channel layout : L R
Sampling rate : 48.0 kHz
Frame rate : 93.750 FPS (512 SPF)
Bit depth : 16 bits
Compression mode : Lossless
Stream size : 858 MiB (3%)
Title : Sulphur.and.White.2020.1080p.BluRay.REMUX.AVC.DTS-HD.MA.5.1-FGT
Language : English
Default : No
Forced : No
Original source medium : Blu-ray

Menu
00:00:00.000 : en:Chapter 01
00:19:32.625 : en:Chapter 02
00:30:23.291 : en:Chapter 03
00:50:16.458 : en:Chapter 04
01:00:44.583 : en:Chapter 05
01:11:57.291 : en:Chapter 06
01:22:37.750 : en:Chapter 07
01:31:12.333 : en:Chapter 08
01:41:25.666 : en:Chapter 09
01:53:37.208 : en:Chapter 10

本帖子中包含更多资源

您需要 登录 才可以下载或查看,没有帐号?立即注册

x
回复

使用道具 举报

0

主题

737

帖子

3206

积分

论坛元老

Rank: 8Rank: 8

积分
3206
发表于 2020-10-5 14:58:27 | 显示全部楼层
感谢楼主分享高清影片
回复

使用道具 举报

0

主题

452

帖子

2607

积分

金牌会员

Rank: 6Rank: 6

积分
2607
发表于 2020-10-5 21:44:33 | 显示全部楼层
感谢楼主分享
回复

使用道具 举报

0

主题

695

帖子

5502

积分

VIP永久

Rank: 12Rank: 12Rank: 12

积分
5502
发表于 2020-10-7 18:10:03 | 显示全部楼层
感谢楼主分享!!!
回复

使用道具 举报

0

主题

679

帖子

5181

积分

论坛元老

Rank: 8Rank: 8

积分
5181
发表于 2020-10-13 05:28:10 | 显示全部楼层
谢楼主分享
回复

使用道具 举报

0

主题

679

帖子

5181

积分

论坛元老

Rank: 8Rank: 8

积分
5181
发表于 2020-10-13 05:31:58 | 显示全部楼层
谢楼主分享
回复

使用道具 举报

您需要登录后才可以回帖 登录 | 立即注册

本版积分规则

QQ|Archiver|手机版|小黑屋|原盘天堂 盘盘多 点击这里给我发消息

GMT+8, 2020-10-27 07:57 , Processed in 0.063546 second(s), 24 queries .

Powered by Discuz! X3.4

Copyright © 2001-2020, Tencent Cloud.

快速回复 返回顶部 返回列表