请选择 进入手机版 | 继续访问电脑版
本站原来Q群已取消,请原Q群会员和其他未入群会员加原盘天堂新官方QQ群713428235【盘盘多】,验证信息填写您在论坛的会员名,不填会员名的无法入群哈,进群后修改您的群名片名字为您在论坛的会员名,请务必修改,否则群成员多了不知道您是哪个会员,无法为您发送高速链接!

原盘天堂

 找回密码
 立即注册
查看: 114|回复: 4

2d蓝光原盘bdmv 糟糕咨询 英语原版 bad.therapy.2020.1080p.bluray.avc.dts-hd.ma.5.1[23.03 GB]

[复制链接]

5448

主题

5975

帖子

129万

积分

管理员

Rank: 18Rank: 18Rank: 18Rank: 18Rank: 18

积分
1295132
发表于 2020-10-1 19:39:41 | 显示全部楼层 |阅读模式






糟糕咨询 Bad Therapy (2020)

导演: William Teitler
编剧: Nancy Doyne
主演: 莎拉·夏希 / 艾丽西亚·希尔维斯通 / 海利·乔·奥斯蒙 / 爱莎·泰勒 / 金格·贡萨加 / 更多...
类型: 喜剧
制片国家/地区: 美国
语言: 英语
上映日期: 2020-04-17(美国)
片长: 87分钟
又名: 朱迪·斯莫尔 / 不良律师 / Judy Small

豆瓣评分 引用
4.5
68人评价
5星 1.9%
4星 7.7%
3星 30.8%
2星 32.7%
1星 26.9%

剧情简介 · · · · · ·
  改编自Nancy Doyne的小说。讲述一对夫妻去做婚姻咨询,咨询师朱迪·斯莫尔虽然看着很可靠,但心怀黑暗和矛盾,她操纵了夫妻俩,导致两人产生矛盾,婚姻濒临破裂。夏希饰演Annabelle,夫妻中的丈夫Bob的会计同事,离异、举止挑逗。

DISC INFO:

Disc Title:     Bad.Therapy.2020.1080p.BluRay.AVC.DTS-HD.MA.5.1-FGT
Disc Size:      24,727,622,269 bytes
Protection:     AACS
BDInfo:         0.7.5.9 (compatible layout created by DVDFab 11.0.8.9)

PLAYLIST REPORT:

Name:                   00000.MPLS  
Length:                 1:37:11.909 (h:m:s.ms)
Size:                   24,206,272,512 bytes
Total Bitrate:          33.21 Mbps

VIDEO:

Codec                   Bitrate             Description     
-----                   -------             -----------     
MPEG-4 AVC Video        28214 kbps          1080p / 23.976 fps / 16:9 / High Profile 4.1

AUDIO:

Codec                           Language        Bitrate         Description     
-----                           --------        -------         -----------     
DTS-HD Master Audio             English         3268 kbps       5.1 / 48 kHz / 3268 kbps / 24-bit (DTS Core: 5.1 / 48 kHz / 1509 kbps / 24-bit)

SUBTITLES:

Codec                           Language        Bitrate         Description     
-----                           --------        -------         -----------     
Presentation Graphics           English         37.226 kbps        

Video
ID : 1
ID in the original source medium : 4113 (0x1011)
Format : AVC
Format/Info : Advanced Video Codec
Format profile : [email protected]
Format settings : CABAC / 4 Ref Frames
Format settings, CABAC : Yes
Format settings, Reference frames : 4 frames
Codec ID : V_MPEG4/ISO/AVC
Duration : 1 h 37 min
Bit rate mode : Variable
Bit rate : 28.2 Mb/s
Maximum bit rate : 35.0 Mb/s
Width : 1 920 pixels
Height : 1 080 pixels
Display aspect ratio : 16:9
Frame rate mode : Constant
Frame rate : 23.976 (24000/1001) FPS
Color space : YUV
Chroma subsampling : 4:2:0
Bit depth : 8 bits
Scan type : Progressive
Bits/(Pixel*Frame) : 0.567
Stream size : 19.2 GiB (90%)
Title : Bad.Therapy.2020.1080p.BluRay.REMUX.AVC.DTS-HD.MA.5.1-FGT
Language : English
Default : No
Forced : No
Color range : Limited
Color primaries : BT.709
Transfer characteristics : BT.709
Matrix coefficients : BT.709
Original source medium : Blu-ray

Audio
ID : 2
ID in the original source medium : 4352 (0x1100)
Format : DTS XLL
Format/Info : Digital Theater Systems
Commercial name : DTS-HD Master Audio
Codec ID : A_DTS
Duration : 1 h 37 min
Bit rate mode : Variable
Bit rate : 3 268 kb/s
Channel(s) : 6 channels
Channel layout : C L R Ls Rs LFE
Sampling rate : 48.0 kHz
Frame rate : 93.750 FPS (512 SPF)
Bit depth : 24 bits
Compression mode : Lossless
Stream size : 2.22 GiB (10%)
Title : Bad.Therapy.2020.1080p.BluRay.REMUX.AVC.DTS-HD.MA.5.1-FGT
Language : English
Default : Yes
Forced : No
Original source medium : Blu-ray

Text
ID : 3
ID in the original source medium : 4608 (0x1200)
Format : PGS
Muxing mode : zlib
Codec ID : S_HDMV/PGS
Codec ID/Info : Picture based subtitle format used on BDs/HD-DVDs
Duration : 1 h 37 min
Bit rate : 37.3 kb/s
Count of elements : 2934
Stream size : 25.9 MiB (0%)
Title : English-PGS
Language : English
Default : Yes
Forced : No
Original source medium : Blu-ray

Menu
00:00:00.000 : en:Chapter 01
00:09:34.615 : en:Chapter 02
00:18:19.681 : en:Chapter 03
00:30:23.530 : en:Chapter 04
00:39:24.487 : en:Chapter 05
00:50:32.029 : en:Chapter 06
00:59:13.675 : en:Chapter 07
01:10:08.662 : en:Chapter 08
01:19:26.678 : en:Chapter 09
01:32:40.179 : en:Chapter 10

本帖子中包含更多资源

您需要 登录 才可以下载或查看,没有帐号?立即注册

x
回复

使用道具 举报

0

主题

737

帖子

3206

积分

论坛元老

Rank: 8Rank: 8

积分
3206
发表于 2020-10-2 21:12:31 | 显示全部楼层
感谢楼主分享高清影片
回复

使用道具 举报

0

主题

452

帖子

2607

积分

金牌会员

Rank: 6Rank: 6

积分
2607
发表于 2020-10-2 22:23:04 | 显示全部楼层
感谢楼主分享
回复

使用道具 举报

0

主题

679

帖子

5181

积分

论坛元老

Rank: 8Rank: 8

积分
5181
发表于 2020-10-6 04:57:57 | 显示全部楼层
感谢楼主分享!
回复

使用道具 举报

0

主题

695

帖子

5502

积分

VIP永久

Rank: 12Rank: 12Rank: 12

积分
5502
发表于 2020-10-7 18:09:31 | 显示全部楼层
感谢楼主分享!!!
回复

使用道具 举报

您需要登录后才可以回帖 登录 | 立即注册

本版积分规则

QQ|Archiver|手机版|小黑屋|原盘天堂 盘盘多 点击这里给我发消息

GMT+8, 2020-10-27 08:51 , Processed in 0.064856 second(s), 24 queries .

Powered by Discuz! X3.4

Copyright © 2001-2020, Tencent Cloud.

快速回复 返回顶部 返回列表