请选择 进入手机版 | 继续访问电脑版
本站原来Q群已取消,请原Q群会员和其他未入群会员加原盘天堂新官方QQ群713428235【盘盘多】,验证信息填写您在论坛的会员名,不填会员名的无法入群哈,进群后修改您的群名片名字为您在论坛的会员名,请务必修改,否则群成员多了不知道您是哪个会员,无法为您发送高速链接!

原盘天堂

 找回密码
 立即注册
查看: 230|回复: 15

4k蓝光原盘bdmv 伦敦陷落 英语原版 london.has.fallen.2016.2160p.bluray.hevc.dts-hd.ma.5.1[57.23 GB]

[复制链接]

5448

主题

5975

帖子

129万

积分

管理员

Rank: 18Rank: 18Rank: 18Rank: 18Rank: 18

积分
1295140
发表于 2020-9-28 09:25:27 | 显示全部楼层 |阅读模式








伦敦陷落 London Has Fallen (2016)

导演: 巴巴克·纳加非
编剧: 克赖顿·罗森博格 / 凯特琳·贝内迪克特 / 克里斯蒂安·古德加斯特 / 查德·圣·约翰
主演: 杰拉德·巴特勒 / 艾伦·艾克哈特 / 摩根·弗里曼 / 阿隆·阿布布尔 / 安吉拉·贝塞特 / 更多...
类型: 动作 / 惊悚 / 犯罪
官方网站: www.londonhasfallen.com
制片国家/地区: 英国 / 美国 / 保加利亚
语言: 英语 / 意大利语 / 法语 / 日语
上映日期: 2016-04-08(中国大陆) / 2016-03-04(美国/英国)
片长: 98分钟(中国大陆) / 99分钟
又名: 白宫沦陷2:伦敦沦陷(港) / 全面攻占2:伦敦救援(台)

豆瓣评分
6.3
89852人评价
5星6.1%
4星21.7%
3星54.0%
2星15.3%
1星2.9%
好于 36% 动作片
好于 25% 犯罪片

剧情简介 · · · · · ·
  班宁(杰拉德·巴特勒 Gerard Butler 饰)是美国特勤局的特工,最近,他接到了一个重要的任务,那就是联手局长琳(安吉拉·贝塞特 Angela Bassett 饰),护送总统本杰明(艾伦·艾克哈特 Aaron Eckhart 饰)前往伦敦圣保罗教堂,参加英国首相的葬礼。
  英国首相死得蹊跷,班宁和琳知道,他们的行程一定受到了不法分子的密切关注,与此同时,在葬礼上,各国首脑均有出席,伦敦这座繁华靓丽的城市霎时间成为了世界关注的焦点。果不其然,刺客们潜伏在暗处等待着时机,国家领导人屡屡遭到伏击,伦敦地标建筑亦不能幸免于难,整座城市陷入了混乱和瘫痪之中。而对于班宁来说,最要紧的任务,便是护送总统,回到国内。

伦敦陷落 London Has Fallen 获奖情况
第37届金酸莓奖  (2017)
最差男主角(提名) 杰拉德·巴特勒
第3届豆瓣电影年度榜单  (2016)
4月最受关注电影(提名)

DISC INFO:

Disc Title:     London.Has.Fallen.2016.2160p.BluRay.HEVC.DTS-HD.MA.5.1-EATDIK
Disc Size:      61,454,085,684 bytes
Protection:     AACS2
Extras:         Ultra HD
BDInfo:         0.7.5.9 (compatible layout created by DVDFab 11.1.0.7)

PLAYLIST REPORT:

Name:                   00003.MPLS  
Length:                 1:39:15.666 (h:m:s.ms)
Size:                   60,497,006,592 bytes
Total Bitrate:          81.26 Mbps

(*) Indicates included stream hidden by this playlist.

VIDEO:

Codec                   Bitrate             Description   
-----                   -------             -----------   
MPEG-H HEVC Video       55998 kbps          2160p / 24 fps / 16:9 / Main 10 @ Level 5.1 @ High / 4:2:0 / 10 bits / 1000nits / HDR10 / BT.2020
* MPEG-H HEVC Video     14044 kbps (20.05%) 1080p / 24 fps / 16:9 / Main 10 @ Level 5.1 @ High / 4:2:0 / 10 bits / 1000nits / Dolby Vision FEL / BT.2020

AUDIO:

Codec                           Language        Bitrate         Description   
-----                           --------        -------         -----------   
DTS-HD Master Audio             German          3574 kbps       5.1 / 48 kHz / 3574 kbps / 24-bit (DTS Core: 5.1 / 48 kHz / 1509 kbps / 24-bit)
DTS-HD Master Audio             English         3660 kbps       5.1 / 48 kHz / 3660 kbps / 24-bit (DTS Core: 5.1 / 48 kHz / 1509 kbps / 24-bit)

SUBTITLES:

Codec                           Language        Bitrate         Description   
-----                           --------        -------         -----------   
Presentation Graphics           German          20.604 kbps                    
Presentation Graphics           English         26.851 kbps                    
Presentation Graphics           German          0.443 kbps                     
Presentation Graphics           English         0.215 kbps   

Video #1
ID : 1
ID in the original source medium : 4113 (0x1011)
Format : HEVC
Format/Info : High Efficiency Video Coding
Format profile : Main [email protected]@High
HDR format : SMPTE ST 2086, HDR10 compatible
Codec ID : V_MPEGH/ISO/HEVC
Duration : 1 h 39 min
Bit rate : 56.0 Mb/s
Width : 3 840 pixels
Height : 2 160 pixels
Display aspect ratio : 16:9
Frame rate mode : Constant
Frame rate : 24.000 FPS
Color space : YUV
Chroma subsampling : 4:2:0 (Type 2)
Bit depth : 10 bits
Bits/(Pixel*Frame) : 0.281
Stream size : 38.8 GiB (82%)
Title : London.Has.Fallen.2016.2160p.BluRay.REMUX.HEVC.DTS-HD.MA.5.1-FGT
Language : English
Default : Yes
Forced : No
Color range : Limited
Color primaries : BT.2020
Transfer characteristics : PQ
Matrix coefficients : BT.2020 non-constant
Mastering display color primaries : BT.2020
Mastering display luminance : min: 0.0001 cd/m2, max: 1000 cd/m2
Maximum Content Light Level : 906 cd/m2
Maximum Frame-Average Light Level : 824 cd/m2
Original source medium : Blu-ray

Video #2
ID : 2
ID in the original source medium : 4117 (0x1015)
Format : HEVC
Format/Info : High Efficiency Video Coding
Format profile : Main [email protected]@High
HDR format : SMPTE ST 2086, HDR10 compatible
Codec ID : V_MPEGH/ISO/HEVC
Duration : 29 min 54 s
Bit rate : 16.7 Mb/s
Width : 1 920 pixels
Height : 1 080 pixels
Display aspect ratio : 16:9
Frame rate mode : Constant
Frame rate : 24.000 FPS
Color space : YUV
Chroma subsampling : 4:2:0 (Type 2)
Bit depth : 10 bits
Bits/(Pixel*Frame) : 0.335
Stream size : 3.48 GiB (7%)
Title : London.Has.Fallen.2016.2160p.BluRay.REMUX.HEVC.DTS-HD.MA.5.1-FGT
Default : No
Forced : No
Color range : Limited
Color primaries : BT.2020
Transfer characteristics : PQ
Matrix coefficients : BT.2020 non-constant
Mastering display color primaries : BT.2020
Mastering display luminance : min: 0.0001 cd/m2, max: 1000 cd/m2
Original source medium : Blu-ray

Audio #1
ID : 3
ID in the original source medium : 4353 (0x1101)
Format : DTS XLL
Format/Info : Digital Theater Systems
Commercial name : DTS-HD Master Audio
Codec ID : A_DTS
Duration : 1 h 39 min
Bit rate mode : Variable
Bit rate : 3 660 kb/s
Channel(s) : 6 channels
Channel layout : C L R Ls Rs LFE
Sampling rate : 48.0 kHz
Frame rate : 93.750 FPS (512 SPF)
Bit depth : 24 bits
Compression mode : Lossless
Stream size : 2.54 GiB (5%)
Title : London.Has.Fallen.2016.2160p.BluRay.REMUX.HEVC.DTS-HD.MA.5.1-FGT
Language : English
Default : Yes
Forced : No
Original source medium : Blu-ray

Audio #2
ID : 4
ID in the original source medium : 4352 (0x1100)
Format : DTS XLL
Format/Info : Digital Theater Systems
Commercial name : DTS-HD Master Audio
Codec ID : A_DTS
Duration : 1 h 39 min
Bit rate mode : Variable
Bit rate : 3 574 kb/s
Channel(s) : 6 channels
Channel layout : C L R Ls Rs LFE
Sampling rate : 48.0 kHz
Frame rate : 93.750 FPS (512 SPF)
Bit depth : 24 bits
Compression mode : Lossless
Stream size : 2.48 GiB (5%)
Title : London.Has.Fallen.2016.2160p.BluRay.REMUX.HEVC.DTS-HD.MA.5.1-FGT
Language : German
Default : No
Forced : No
Original source medium : Blu-ray

Text #1
ID : 5
Format : UTF-8
Codec ID : S_TEXT/UTF8
Codec ID/Info : UTF-8 Plain Text
Duration : 1 h 16 min
Bit rate : 0 b/s
Count of elements : 14
Stream size : 320 Bytes (0%)
Title : English-FORCED-SRT
Language : English
Default : Yes
Forced : Yes

Text #2
ID : 6
Format : UTF-8
Codec ID : S_TEXT/UTF8
Codec ID/Info : UTF-8 Plain Text
Duration : 1 h 37 min
Bit rate : 44 b/s
Count of elements : 1257
Stream size : 32.2 KiB (0%)
Title : English-SRT
Language : English
Default : No
Forced : No

Text #3
ID : 7
ID in the original source medium : 4768 (0x12A0)
Format : PGS
Muxing mode : zlib
Codec ID : S_HDMV/PGS
Codec ID/Info : Picture based subtitle format used on BDs/HD-DVDs
Duration : 1 h 38 min
Bit rate : 20.8 kb/s
Count of elements : 1904
Stream size : 14.6 MiB (0%)
Title : German-PGS
Language : German
Default : No
Forced : No
Original source medium : Blu-ray

Text #4
ID : 8
ID in the original source medium : 4769 (0x12A1)
Format : PGS
Muxing mode : zlib
Codec ID : S_HDMV/PGS
Codec ID/Info : Picture based subtitle format used on BDs/HD-DVDs
Duration : 1 h 38 min
Bit rate : 27.1 kb/s
Count of elements : 3070
Stream size : 19.1 MiB (0%)
Title : English-PGS
Language : English
Default : No
Forced : No
Original source medium : Blu-ray

Text #5
ID : 9
ID in the original source medium : 4770 (0x12A2)
Format : PGS
Muxing mode : zlib
Codec ID : S_HDMV/PGS
Codec ID/Info : Picture based subtitle format used on BDs/HD-DVDs
Duration : 1 h 36 min
Bit rate : 454 b/s
Count of elements : 46
Stream size : 322 KiB (0%)
Title : German-FORCED-PGS
Language : German
Default : No
Forced : No
Original source medium : Blu-ray

Text #6
ID : 10
ID in the original source medium : 4771 (0x12A3)
Format : PGS
Muxing mode : zlib
Codec ID : S_HDMV/PGS
Codec ID/Info : Picture based subtitle format used on BDs/HD-DVDs
Duration : 1 h 16 min
Bit rate : 277 b/s
Count of elements : 28
Stream size : 156 KiB (0%)
Title : English-FORCED-PGS
Language : English
Default : No
Forced : No
Original source medium : Blu-ray

Menu
00:00:00.000 : en:Chapter 01
00:10:36.125 : en:Chapter 02
00:21:12.083 : en:Chapter 03
00:33:52.125 : en:Chapter 04
00:45:26.500 : en:Chapter 05
00:57:35.583 : en:Chapter 06
01:08:43.416 : en:Chapter 07
01:17:54.666 : en:Chapter 08
01:32:00.666 : en:Chapter 09

本帖子中包含更多资源

您需要 登录 才可以下载或查看,没有帐号?立即注册

x
回复

使用道具 举报

0

主题

314

帖子

1439

积分

金牌会员

Rank: 6Rank: 6

积分
1439
发表于 2020-9-28 11:18:56 | 显示全部楼层
thank you very much
回复

使用道具 举报

0

主题

695

帖子

5502

积分

VIP永久

Rank: 12Rank: 12Rank: 12

积分
5502
发表于 2020-9-28 12:21:50 | 显示全部楼层
感谢楼主分享!!!
回复

使用道具 举报

0

主题

102

帖子

627

积分

高级会员

Rank: 4

积分
627
发表于 2020-9-28 13:24:34 | 显示全部楼层
感谢楼主分享!!!
回复

使用道具 举报

0

主题

452

帖子

2607

积分

金牌会员

Rank: 6Rank: 6

积分
2607
发表于 2020-9-28 17:13:05 | 显示全部楼层
谢谢楼主分享
回复

使用道具 举报

0

主题

314

帖子

1439

积分

金牌会员

Rank: 6Rank: 6

积分
1439
发表于 2020-9-29 11:27:49 | 显示全部楼层
thank you very much
回复

使用道具 举报

0

主题

477

帖子

6049

积分

论坛元老

Rank: 8Rank: 8

积分
6049
发表于 2020-9-30 00:09:13 | 显示全部楼层
感谢楼主分享!!!
回复

使用道具 举报

0

主题

737

帖子

3206

积分

论坛元老

Rank: 8Rank: 8

积分
3206
发表于 2020-9-30 20:29:46 | 显示全部楼层
感谢楼主分享高清影片
回复

使用道具 举报

0

主题

14

帖子

125

积分

注册会员

Rank: 2

积分
125
发表于 2020-10-1 11:35:09 | 显示全部楼层
thanks ! let me see !
回复

使用道具 举报

0

主题

73

帖子

377

积分

中级会员

Rank: 3Rank: 3

积分
377
发表于 2020-10-2 01:22:10 | 显示全部楼层
喜欢 试试吧 国庆长假
回复

使用道具 举报

您需要登录后才可以回帖 登录 | 立即注册

本版积分规则

QQ|Archiver|手机版|小黑屋|原盘天堂 盘盘多 点击这里给我发消息

GMT+8, 2020-10-27 09:12 , Processed in 0.066458 second(s), 24 queries .

Powered by Discuz! X3.4

Copyright © 2001-2020, Tencent Cloud.

快速回复 返回顶部 返回列表