请选择 进入手机版 | 继续访问电脑版
本站原来Q群已取消,请原Q群会员和其他未入群会员加原盘天堂新官方QQ群713428235【盘盘多】,验证信息填写您在论坛的会员名,不填会员名的无法入群哈,进群后修改您的群名片名字为您在论坛的会员名,请务必修改,否则群成员多了不知道您是哪个会员,无法为您发送高速链接!

原盘天堂

 找回密码
 立即注册
查看: 194|回复: 13

4k蓝光原盘bdmv 奥林匹斯的陷落 英语原版 olympus.has.fallen.2013.2160p.bluray.hevc.dts-hd.ma.5.1[60.56 GB]

[复制链接]

5448

主题

5975

帖子

129万

积分

管理员

Rank: 18Rank: 18Rank: 18Rank: 18Rank: 18

积分
1295117
发表于 2020-9-28 09:04:19 | 显示全部楼层 |阅读模式








奥林匹斯的陷落 Olympus Has Fallen (2013)

导演: 安东尼·福奎阿
编剧: 克赖顿·罗森博格 / 凯特琳·贝内迪克特
主演: 杰拉德·巴特勒 / 艾伦·艾克哈特 / 芬利·雅克布森 / 迪伦·麦克德莫特 / 尹成植 / 更多...
类型: 动作 / 犯罪
制片国家/地区: 美国
语言: 英语 / 韩语
上映日期: 2013-12-29(中国大陆) / 2013-03-22(美国)
片长: 114分钟(中国大陆) / 119分钟(美国)
又名: 白宫沦陷(港) / 全面攻占:倒数救援(台) / 奥林匹斯陷落 / 白宫陷落 / End of White House

豆瓣评分
6.4
63317人评价
5星6.4%
4星25.5%
3星54.1%
2星11.7%
1星2.3%
好于 40% 动作片
好于 29% 犯罪片

剧情简介 · · · · · ·
  白宫,特情局秘密代号为“奥林匹斯”,目前正处在危机之中,一伙恐怖分子先用重型的飞机和机枪袭击了这里,随后便派入了一群敢死队进入,他们彻底占领了美国总统府,劫持了美国总统,并以此为要挟,妄图控制世界格局。
  坐在文员办公室的迈克·班宁(杰拉德·巴特勒 Gerard Butler 饰)从这次袭击中活了下来。班宁原先是一个特种兵,负责第一夫人和美国总统(艾伦·艾克哈特 Aaron Eckhart 饰)的安危。但是在一个圣诞节的例行任务中,他的工作出了错,造成了第一夫人的死亡。后来,班宁就被调整到了文职工作上。
  临时政府迅速派遣美国突击队登陆白宫,企图营救总统,却被恐怖分子控制的白宫防御系统击退,营救计划几度失败。眼看恐怖分子的阴谋即将得逞。因为意外,班宁活了下来,他与临时政府取得联系,并孤身一人营救总统,班宁成为了整个美国的最后一丝希望。这位前特工依靠自己过硬的身手,在危机密布的白宫只身力挽狂澜,率先拯救了总统的儿子,让总统摆脱后顾之忧,恐怖分子获得地狱犬密码的阴谋被延迟。经过艰苦的鏖战和激烈的厮杀,班宁拯救了被劫持的总统,并粉碎了恐怖分子企图利用核弹毁灭美国的阴谋……

奥林匹斯的陷落 Olympus Has Fallen 获奖情况
第12届华盛顿影评人协会奖  (2013)
华盛顿特区最佳写照(提名)

DISC INFO:

Disc Title:     Olympus.Has.Fallen.2013.2160p.BluRay.HEVC.DTS-HD.MA.5.1-EATDIK
Disc Size:      65,021,191,544 bytes
Protection:     AACS2
Extras:         Ultra HD
BDInfo:         0.7.5.9 (compatible layout created by DVDFab 11.1.0.7)

PLAYLIST REPORT:

Name:                   00003.MPLS  
Length:                 1:59:49.166 (h:m:s.ms)
Size:                   63,989,993,472 bytes
Total Bitrate:          71.21 Mbps

(*) Indicates included stream hidden by this playlist.

VIDEO:

Codec                   Bitrate             Description   
-----                   -------             -----------   
MPEG-H HEVC Video       47999 kbps          2160p / 24 fps / 16:9 / Main 10 @ Level 5.1 @ High / 4:2:0 / 10 bits / 1000nits / HDR10 / BT.2020
* MPEG-H HEVC Video     12044 kbps (20.06%) 1080p / 24 fps / 16:9 / Main 10 @ Level 5.1 @ High / 4:2:0 / 10 bits / 1000nits / Dolby Vision FEL / BT.2020

AUDIO:

Codec                           Language        Bitrate         Description   
-----                           --------        -------         -----------   
DTS-HD Master Audio             German          3786 kbps       5.1 / 48 kHz / 3786 kbps / 24-bit (DTS Core: 5.1 / 48 kHz / 1509 kbps / 24-bit)
DTS-HD Master Audio             English         3833 kbps       5.1 / 48 kHz / 3833 kbps / 24-bit (DTS Core: 5.1 / 48 kHz / 1509 kbps / 24-bit)

SUBTITLES:

Codec                           Language        Bitrate         Description   
-----                           --------        -------         -----------   
Presentation Graphics           German          24.901 kbps                    
Presentation Graphics           German          0.675 kbps                     
Presentation Graphics           English         0.828 kbps   

Video #1
ID : 1
ID in the original source medium : 4113 (0x1011)
Format : HEVC
Format/Info : High Efficiency Video Coding
Format profile : Main [email protected]@High
HDR format : SMPTE ST 2086, HDR10 compatible
Codec ID : V_MPEGH/ISO/HEVC
Duration : 1 h 59 min
Bit rate : 48.0 Mb/s
Width : 3 840 pixels
Height : 2 160 pixels
Display aspect ratio : 16:9
Frame rate mode : Constant
Frame rate : 24.000 FPS
Color space : YUV
Chroma subsampling : 4:2:0 (Type 2)
Bit depth : 10 bits
Bits/(Pixel*Frame) : 0.241
Stream size : 40.2 GiB (71%)
Title : Olympus.Has.Fallen.2013.2160p.BluRay.REMUX.HEVC.DTS-HD.MA.5.1-FGT
Language : English
Default : Yes
Forced : No
Color range : Limited
Color primaries : BT.2020
Transfer characteristics : PQ
Matrix coefficients : BT.2020 non-constant
Mastering display color primaries : BT.2020
Mastering display luminance : min: 0.0001 cd/m2, max: 1000 cd/m2
Maximum Content Light Level : 891 cd/m2
Maximum Frame-Average Light Level : 428 cd/m2
Original source medium : Blu-ray

Video #2
ID : 2
ID in the original source medium : 4117 (0x1015)
Format : HEVC
Format/Info : High Efficiency Video Coding
Format profile : Main [email protected]@High
HDR format : SMPTE ST 2086, HDR10 compatible
Codec ID : V_MPEGH/ISO/HEVC
Duration : 1 h 59 min
Bit rate : 12.0 Mb/s
Width : 1 920 pixels
Height : 1 080 pixels
Display aspect ratio : 16:9
Frame rate mode : Constant
Frame rate : 24.000 FPS
Color space : YUV
Chroma subsampling : 4:2:0 (Type 2)
Bit depth : 10 bits
Bits/(Pixel*Frame) : 0.242
Stream size : 10.1 GiB (18%)
Title : Olympus.Has.Fallen.2013.2160p.BluRay.REMUX.HEVC.DTS-HD.MA.5.1-FGT
Language : English
Default : No
Forced : No
Color range : Limited
Color primaries : BT.2020
Transfer characteristics : PQ
Matrix coefficients : BT.2020 non-constant
Mastering display color primaries : BT.2020
Mastering display luminance : min: 0.0001 cd/m2, max: 1000 cd/m2
Original source medium : Blu-ray

Audio #1
ID : 3
ID in the original source medium : 4353 (0x1101)
Format : DTS XLL
Format/Info : Digital Theater Systems
Commercial name : DTS-HD Master Audio
Codec ID : A_DTS
Duration : 1 h 59 min
Bit rate mode : Variable
Bit rate : 3 833 kb/s
Channel(s) : 6 channels
Channel layout : C L R Ls Rs LFE
Sampling rate : 48.0 kHz
Frame rate : 93.750 FPS (512 SPF)
Bit depth : 24 bits
Compression mode : Lossless
Stream size : 3.21 GiB (6%)
Title : Olympus.Has.Fallen.2013.2160p.BluRay.REMUX.HEVC.DTS-HD.MA.5.1-FGT
Language : English
Default : Yes
Forced : No
Original source medium : Blu-ray

Audio #2
ID : 4
ID in the original source medium : 4352 (0x1100)
Format : DTS XLL
Format/Info : Digital Theater Systems
Commercial name : DTS-HD Master Audio
Codec ID : A_DTS
Duration : 1 h 59 min
Bit rate mode : Variable
Bit rate : 3 786 kb/s
Channel(s) : 6 channels
Channel layout : C L R Ls Rs LFE
Sampling rate : 48.0 kHz
Frame rate : 93.750 FPS (512 SPF)
Bit depth : 24 bits
Compression mode : Lossless
Stream size : 3.17 GiB (6%)
Title : Olympus.Has.Fallen.2013.2160p.BluRay.REMUX.HEVC.DTS-HD.MA.5.1-FGT
Language : German
Default : No
Forced : No
Original source medium : Blu-ray

Text #1
ID : 5
Format : UTF-8
Codec ID : S_TEXT/UTF8
Codec ID/Info : UTF-8 Plain Text
Duration : 1 h 41 min
Bit rate : 1 b/s
Count of elements : 57
Stream size : 1.36 KiB (0%)
Title : English-FORCED-SRT
Language : English
Default : Yes
Forced : Yes

Text #2
ID : 6
Format : UTF-8
Codec ID : S_TEXT/UTF8
Codec ID/Info : UTF-8 Plain Text
Duration : 1 h 48 min
Bit rate : 47 b/s
Count of elements : 1243
Stream size : 38.2 KiB (0%)
Title : English-SRT
Language : English
Default : No
Forced : No

Text #3
ID : 7
ID in the original source medium : 4768 (0x12A0)
Format : PGS
Muxing mode : zlib
Codec ID : S_HDMV/PGS
Codec ID/Info : Picture based subtitle format used on BDs/HD-DVDs
Duration : 1 h 58 min
Bit rate : 25.1 kb/s
Count of elements : 2532
Stream size : 21.3 MiB (0%)
Title : German-PGS
Language : German
Default : No
Forced : No
Original source medium : Blu-ray

Text #4
ID : 8
ID in the original source medium : 4769 (0x12A1)
Format : PGS
Muxing mode : zlib
Codec ID : S_HDMV/PGS
Codec ID/Info : Picture based subtitle format used on BDs/HD-DVDs
Duration : 1 h 58 min
Bit rate : 681 b/s
Count of elements : 86
Stream size : 593 KiB (0%)
Title : German-FORCED-PGS
Language : German
Default : No
Forced : No
Original source medium : Blu-ray

Text #5
ID : 9
ID in the original source medium : 4770 (0x12A2)
Format : PGS
Muxing mode : zlib
Codec ID : S_HDMV/PGS
Codec ID/Info : Picture based subtitle format used on BDs/HD-DVDs
Duration : 1 h 41 min
Bit rate : 974 b/s
Count of elements : 114
Stream size : 726 KiB (0%)
Title : English-FORCED-PGS
Language : English
Default : No
Forced : No
Original source medium : Blu-ray

Menu
00:00:00.000 : en:Chapter 01
00:09:39.958 : en:Chapter 02
00:19:28.166 : en:Chapter 03
00:30:43.208 : en:Chapter 04
00:40:30.666 : en:Chapter 05
00:51:07.916 : en:Chapter 06
01:02:58.541 : en:Chapter 07
01:12:34.750 : en:Chapter 08
01:20:12.541 : en:Chapter 09
01:32:18.250 : en:Chapter 10
01:40:31.125 : en:Chapter 11
01:50:38.916 : en:Chapter 12

本帖子中包含更多资源

您需要 登录 才可以下载或查看,没有帐号?立即注册

x
回复

使用道具 举报

0

主题

183

帖子

1478

积分

金牌会员

Rank: 6Rank: 6

积分
1478
发表于 2020-9-28 09:52:28 | 显示全部楼层
非常精彩的电影,下来收藏,感谢楼主
回复

使用道具 举报

0

主题

314

帖子

1439

积分

金牌会员

Rank: 6Rank: 6

积分
1439
发表于 2020-9-28 11:20:32 | 显示全部楼层
thank you very much
回复

使用道具 举报

0

主题

695

帖子

5502

积分

VIP永久

Rank: 12Rank: 12Rank: 12

积分
5502
发表于 2020-9-28 12:20:44 | 显示全部楼层
感谢楼主分享!!!
回复

使用道具 举报

0

主题

102

帖子

627

积分

高级会员

Rank: 4

积分
627
发表于 2020-9-28 13:28:26 | 显示全部楼层
感谢楼主分享!!!
回复

使用道具 举报

0

主题

452

帖子

2607

积分

金牌会员

Rank: 6Rank: 6

积分
2607
发表于 2020-9-28 17:15:20 | 显示全部楼层
谢谢楼主分享
回复

使用道具 举报

0

主题

248

帖子

2788

积分

金牌会员

Rank: 6Rank: 6

积分
2788
发表于 2020-9-29 00:08:33 | 显示全部楼层
谢谢楼主分享
回复

使用道具 举报

0

主题

477

帖子

6049

积分

论坛元老

Rank: 8Rank: 8

积分
6049
发表于 2020-9-30 00:09:50 | 显示全部楼层
感谢楼主分享!!!
回复

使用道具 举报

0

主题

737

帖子

3206

积分

论坛元老

Rank: 8Rank: 8

积分
3206
发表于 2020-9-30 20:31:13 | 显示全部楼层
感谢楼主分享高清影片
回复

使用道具 举报

0

主题

737

帖子

3206

积分

论坛元老

Rank: 8Rank: 8

积分
3206
发表于 2020-9-30 20:32:29 | 显示全部楼层
感谢楼主分享高清影片
回复

使用道具 举报

您需要登录后才可以回帖 登录 | 立即注册

本版积分规则

QQ|Archiver|手机版|小黑屋|原盘天堂 盘盘多 点击这里给我发消息

GMT+8, 2020-10-27 08:11 , Processed in 0.070452 second(s), 24 queries .

Powered by Discuz! X3.4

Copyright © 2001-2020, Tencent Cloud.

快速回复 返回顶部 返回列表