请选择 进入手机版 | 继续访问电脑版
本站原来Q群已取消,请原Q群会员和其他未入群会员加原盘天堂新官方QQ群713428235【盘盘多】,验证信息填写您在论坛的会员名,不填会员名的无法入群哈,进群后修改您的群名片名字为您在论坛的会员名,请务必修改,否则群成员多了不知道您是哪个会员,无法为您发送高速链接!

原盘天堂

 找回密码
 立即注册
查看: 148|回复: 6

4k蓝光原盘bdmv 攻壳机动队 动画 英语原版 ghost.in.the.shell.1995.japanese.2160p.us.bluray.hevc.truehd.7.1.atmos[62.12 GB]

[复制链接]

5448

主题

5975

帖子

129万

积分

管理员

Rank: 18Rank: 18Rank: 18Rank: 18Rank: 18

积分
1295140
发表于 2020-9-27 13:38:40 | 显示全部楼层 |阅读模式








攻壳机动队 攻殻機動隊 (1995)

导演: 押井守
编剧: 伊藤和典 / 士郎正宗
主演: 田中敦子 / 大塚明夫 / 山寺宏一 / 大木民夫 / 家弓家正 / 更多...
类型: 动作 / 科幻 / 动画
制片国家/地区: 日本
语言: 日语
上映日期: 1995-11-18(日本)
片长: 83分钟
又名: Ghost in the Shell

豆瓣评分
9.0
99225人评价
5星59.9%
4星31.5%
3星7.7%
2星0.7%
1星0.3%
好于 96% 动画片
好于 98% 科幻片

剧情简介 · · · · · ·
  公元2029年,未来世界是高科技与信息化的世界。人类生活水平的提高伴随着犯罪活动的高科技化,于是,专门镇压高科技犯罪的特殊部队——公安9课成立了。队长草薙素子,作为一位全身“义体化”的女警,带领公安9课不断展开行动。
  是次,公安9课帮助公安6课秘密解决了一位程序员外逃他国的麻烦琐事,又卷入传说中的黑客“傀儡师”的犯罪事件。当行动陷入僵局之际,傀儡师竟然不请自来,出现在公安9课!素子与她的战友们,不知不觉地被卷入了一场涉及政府的阴谋之中。

DISC INFO:

Disc Title:     Ghost.in.the.Shell.1995.JAPANESE.2160p.USA.BluRay.HEVC.TrueHD.7.1.Atmos-AdBlue
Disc Size:      66,704,735,084 bytes
Protection:     AACS2
Extras:         Ultra HD, BD-Java
BDInfo:         0.7.5.9 (compatible layout created by DVDFab 11.1.0.7)

PLAYLIST REPORT:

Name:                   00800.MPLS  
Length:                 1:22:38.954 (h:m:s.ms)
Size:                   58,532,444,160 bytes
Total Bitrate:          94.43 Mbps

(*) Indicates included stream hidden by this playlist.

VIDEO:

Codec                   Bitrate             Description   
-----                   -------             -----------   
MPEG-H HEVC Video       59976 kbps          2160p / 23.976 fps / 16:9 / Main 10 @ Level 5.1 @ High / 4:2:0 / 10 bits / 1000nits / HDR10 / BT.2020
* MPEG-H HEVC Video     14944 kbps (19.95%) 1080p / 23.976 fps / 16:9 / Main 10 @ Level 5.1 @ High / 4:2:0 / 10 bits / 1000nits / Dolby Vision FEL / BT.2020

AUDIO:

Codec                           Language        Bitrate         Description   
-----                           --------        -------         -----------   
Dolby TrueHD/Atmos Audio        English         5072 kbps       7.1+11 objects / 48 kHz / 4432 kbps / 24-bit (AC3 Core: 5.1-EX / 48 kHz / 640 kbps)
Dolby TrueHD/Atmos Audio        Japanese        4796 kbps       7.1+11 objects / 48 kHz / 4156 kbps / 24-bit (AC3 Core: 5.1-EX / 48 kHz / 640 kbps)
LPCM Audio                      Japanese        2304 kbps       2.0 / 48 kHz / 2304 kbps / 24-bit
Dolby Digital Audio             English         448 kbps        5.1 / 48 kHz / 448 kbps
Dolby Digital Audio             English         192 kbps        2.0 / 48 kHz / 192 kbps

SUBTITLES:

Codec                           Language        Bitrate         Description   
-----                           --------        -------         -----------   
Presentation Graphics           English         40.478 kbps                    
Presentation Graphics           Spanish         38.567 kbps                    
Presentation Graphics           English         45.845 kbps                    
* Presentation Graphics         English         38.791 kbps                    
* Presentation Graphics         English         33.853 kbps                    
* Presentation Graphics         Spanish         33.374 kbps     

Video #1
ID : 1
ID in the original source medium : 4113 (0x1011)
Format : HEVC
Format/Info : High Efficiency Video Coding
Format profile : Main [email protected]@High
HDR format : SMPTE ST 2086, HDR10 compatible
Codec ID : V_MPEGH/ISO/HEVC
Duration : 1 h 22 min
Bit rate : 59.6 Mb/s
Width : 3 840 pixels
Height : 2 160 pixels
Display aspect ratio : 16:9
Frame rate mode : Constant
Frame rate : 23.976 (24000/1001) FPS
Color space : YUV
Chroma subsampling : 4:2:0 (Type 2)
Bit depth : 10 bits
Bits/(Pixel*Frame) : 0.300
Stream size : 34.4 GiB (62%)
Title : Ghost.in.the.Shell.1995.JAPANESE.2160p.USA.BluRay.REMUX.AVC.DTS-HD.MA.TrueHD.7.1.Atmos-FGT
Language : English
Default : Yes
Forced : No
Color range : Limited
Color primaries : BT.2020
Transfer characteristics : PQ
Matrix coefficients : BT.2020 non-constant
Mastering display color primaries : BT.2020
Mastering display luminance : min: 0.0001 cd/m2, max: 1000 cd/m2
Maximum Content Light Level : 1000 cd/m2
Maximum Frame-Average Light Level : 1000 cd/m2
Original source medium : Blu-ray

Video #2
ID : 2
ID in the original source medium : 4117 (0x1015)
Format : HEVC
Format/Info : High Efficiency Video Coding
Format profile : Main [email protected]@High
HDR format : SMPTE ST 2086, HDR10 compatible
Codec ID : V_MPEGH/ISO/HEVC
Duration : 1 h 22 min
Bit rate : 14.8 Mb/s
Width : 1 920 pixels
Height : 1 080 pixels
Display aspect ratio : 16:9
Frame rate mode : Constant
Frame rate : 23.976 (24000/1001) FPS
Color space : YUV
Chroma subsampling : 4:2:0 (Type 2)
Bit depth : 10 bits
Bits/(Pixel*Frame) : 0.298
Stream size : 8.55 GiB (15%)
Title : Ghost.in.the.Shell.1995.JAPANESE.2160p.USA.BluRay.REMUX.AVC.DTS-HD.MA.TrueHD.7.1.Atmos-FGT
Language : English
Default : No
Forced : No
Color range : Limited
Color primaries : BT.2020
Transfer characteristics : PQ
Matrix coefficients : BT.2020 non-constant
Mastering display color primaries : BT.2020
Mastering display luminance : min: 0.0001 cd/m2, max: 1000 cd/m2
Original source medium : Blu-ray

Audio #1
ID : 3
ID in the original source medium : 4353 (0x1101)
Format : MLP FBA 16-ch
Format/Info : Meridian Lossless Packing FBA with 16-channel presentation
Commercial name : Dolby TrueHD with Dolby Atmos
Codec ID : A_TRUEHD
Duration : 1 h 22 min
Bit rate mode : Variable
Bit rate : 4 156 kb/s
Maximum bit rate : 6 606 kb/s
Channel(s) : 8 channels
Channel layout : L R C LFE Ls Rs Lb Rb
Sampling rate : 48.0 kHz
Frame rate : 1 200.000 FPS (40 SPF)
Compression mode : Lossless
Stream size : 2.40 GiB (4%)
Title : Ghost.in.the.Shell.1995.JAPANESE.2160p.USA.BluRay.REMUX.AVC.DTS-HD.MA.TrueHD.7.1.Atmos-FGT
Language : Japanese
Default : Yes
Forced : No
Original source medium : Blu-ray
Number of dynamic objects : 11
Bed channel count : 1 channel
Bed channel configuration : LFE

Audio #2
ID : 4
Format : DTS XLL
Format/Info : Digital Theater Systems
Commercial name : DTS-HD Master Audio
Codec ID : A_DTS
Duration : 1 h 22 min
Bit rate mode : Variable
Bit rate : 4 443 kb/s
Channel(s) : 8 channels
Channel layout : C L R LFE Lb Rb Lss Rss
Sampling rate : 48.0 kHz
Frame rate : 93.750 FPS (512 SPF)
Bit depth : 24 bits
Compression mode : Lossless
Stream size : 2.57 GiB (5%)
Title : Ghost.in.the.Shell.1995.JAPANESE.2160p.USA.BluRay.REMUX.AVC.DTS-HD.MA.TrueHD.7.1.Atmos-FGT
Language : Japanese
Default : No
Forced : No

Audio #3
ID : 5
ID in the original source medium : 4353 (0x1101)
Format : AC-3
Format/Info : Audio Coding 3
Commercial name : Dolby Digital
Codec ID : A_AC3
Duration : 1 h 22 min
Bit rate mode : Constant
Bit rate : 640 kb/s
Channel(s) : 6 channels
Channel layout : L R C LFE Ls Rs
Sampling rate : 48.0 kHz
Frame rate : 31.250 FPS (1536 SPF)
Compression mode : Lossy
Stream size : 378 MiB (1%)
Title : Ghost.in.the.Shell.1995.JAPANESE.2160p.USA.BluRay.REMUX.AVC.DTS-HD.MA.TrueHD.7.1.Atmos-FGT
Language : Japanese
Service kind : Complete Main
Default : No
Forced : No
Original source medium : Blu-ray

Audio #4
ID : 6
ID in the original source medium : 4352 (0x1100)
Format : MLP FBA 16-ch
Format/Info : Meridian Lossless Packing FBA with 16-channel presentation
Commercial name : Dolby TrueHD with Dolby Atmos
Codec ID : A_TRUEHD
Duration : 1 h 22 min
Bit rate mode : Variable
Bit rate : 4 432 kb/s
Maximum bit rate : 6 612 kb/s
Channel(s) : 8 channels
Channel layout : L R C LFE Ls Rs Lb Rb
Sampling rate : 48.0 kHz
Frame rate : 1 200.000 FPS (40 SPF)
Compression mode : Lossless
Stream size : 2.56 GiB (5%)
Title : Ghost.in.the.Shell.1995.JAPANESE.2160p.USA.BluRay.REMUX.AVC.DTS-HD.MA.TrueHD.7.1.Atmos-FGT
Language : English
Default : No
Forced : No
Original source medium : Blu-ray
Number of dynamic objects : 11
Bed channel count : 1 channel
Bed channel configuration : LFE

Audio #5
ID : 7
Format : DTS XLL
Format/Info : Digital Theater Systems
Commercial name : DTS-HD Master Audio
Codec ID : A_DTS
Duration : 1 h 22 min
Bit rate mode : Variable
Bit rate : 4 262 kb/s
Channel(s) : 8 channels
Channel layout : C L R LFE Lb Rb Lss Rss
Sampling rate : 48.0 kHz
Frame rate : 93.750 FPS (512 SPF)
Bit depth : 24 bits
Compression mode : Lossless
Stream size : 2.46 GiB (4%)
Title : Ghost.in.the.Shell.1995.JAPANESE.2160p.USA.BluRay.REMUX.AVC.DTS-HD.MA.TrueHD.7.1.Atmos-FGT
Language : English
Default : No
Forced : No

Audio #6
ID : 8
ID in the original source medium : 4352 (0x1100)
Format : AC-3
Format/Info : Audio Coding 3
Commercial name : Dolby Digital
Codec ID : A_AC3
Duration : 1 h 22 min
Bit rate mode : Constant
Bit rate : 640 kb/s
Channel(s) : 6 channels
Channel layout : L R C LFE Ls Rs
Sampling rate : 48.0 kHz
Frame rate : 31.250 FPS (1536 SPF)
Compression mode : Lossy
Stream size : 378 MiB (1%)
Title : Ghost.in.the.Shell.1995.JAPANESE.2160p.USA.BluRay.REMUX.AVC.DTS-HD.MA.TrueHD.7.1.Atmos-FGT
Language : English
Service kind : Complete Main
Default : No
Forced : No
Original source medium : Blu-ray

Audio #7
ID : 9
ID in the original source medium : 4354 (0x1102)
Format : PCM
Format settings : Little / Signed
Codec ID : A_PCM/INT/LIT
Duration : 1 h 22 min
Bit rate mode : Constant
Bit rate : 2 304 kb/s
Channel(s) : 2 channels
Sampling rate : 48.0 kHz
Frame rate : 30.000 FPS (1600 SPF)
Bit depth : 24 bits
Stream size : 1.33 GiB (2%)
Title : Ghost.in.the.Shell.1995.JAPANESE.2160p.USA.BluRay.REMUX.AVC.DTS-HD.MA.TrueHD.7.1.Atmos-FGT
Language : Japanese
Default : No
Forced : No
Original source medium : Blu-ray

Audio #8
ID : 10
ID in the original source medium : 4355 (0x1103)
Format : AC-3
Format/Info : Audio Coding 3
Commercial name : Dolby Digital
Codec ID : A_AC3
Duration : 1 h 22 min
Bit rate mode : Constant
Bit rate : 448 kb/s
Channel(s) : 6 channels
Channel layout : L R C LFE Ls Rs
Sampling rate : 48.0 kHz
Frame rate : 31.250 FPS (1536 SPF)
Compression mode : Lossy
Stream size : 265 MiB (0%)
Title : Ghost.in.the.Shell.1995.JAPANESE.2160p.USA.BluRay.REMUX.AVC.DTS-HD.MA.TrueHD.7.1.Atmos-FGT
Language : English
Service kind : Complete Main
Default : No
Forced : No
Original source medium : Blu-ray

Audio #9
ID : 11
ID in the original source medium : 4356 (0x1104)
Format : AC-3
Format/Info : Audio Coding 3
Commercial name : Dolby Digital
Codec ID : A_AC3
Duration : 1 h 22 min
Bit rate mode : Constant
Bit rate : 192 kb/s
Channel(s) : 2 channels
Channel layout : L R
Sampling rate : 48.0 kHz
Frame rate : 31.250 FPS (1536 SPF)
Compression mode : Lossy
Stream size : 114 MiB (0%)
Title : Ghost.in.the.Shell.1995.JAPANESE.2160p.USA.BluRay.REMUX.AVC.DTS-HD.MA.TrueHD.7.1.Atmos-FGT
Language : English
Service kind : Complete Main
Default : No
Forced : No
Original source medium : Blu-ray

Text #1
ID : 12
Format : UTF-8
Codec ID : S_TEXT/UTF8
Codec ID/Info : UTF-8 Plain Text
Duration : 1 h 17 min
Bit rate : 69 b/s
Count of elements : 880
Stream size : 39.3 KiB (0%)
Title : English-SRT
Language : English
Default : Yes
Forced : No

Text #2
ID : 13
Format : UTF-8
Codec ID : S_TEXT/UTF8
Codec ID/Info : UTF-8 Plain Text
Duration : 14 s 462 ms
Bit rate : 108 b/s
Count of elements : 4
Stream size : 196 Bytes (0%)
Title : English-FORCED_SRT
Language : English
Default : No
Forced : No

Text #3
ID : 14
ID in the original source medium : 4768 (0x12A0)
Format : PGS
Muxing mode : zlib
Codec ID : S_HDMV/PGS
Codec ID/Info : Picture based subtitle format used on BDs/HD-DVDs
Duration : 1 h 17 min
Bit rate : 43.2 kb/s
Count of elements : 1766
Stream size : 23.9 MiB (0%)
Title : English-PGS
Language : English
Default : No
Forced : No
Original source medium : Blu-ray

Text #4
ID : 15
ID in the original source medium : 4768 (0x12A0)
Format : PGS
Muxing mode : zlib
Codec ID : S_HDMV/PGS
Codec ID/Info : Picture based subtitle format used on BDs/HD-DVDs
Duration : 14 s 494 ms
Bit rate : 66.3 kb/s
Count of elements : 8
Stream size : 117 KiB (0%)
Title : English-FORCED-PGS
Language : English
Default : No
Forced : No
Original source medium : Blu-ray

Text #5
ID : 16
ID in the original source medium : 4769 (0x12A1)
Format : PGS
Muxing mode : zlib
Codec ID : S_HDMV/PGS
Codec ID/Info : Picture based subtitle format used on BDs/HD-DVDs
Duration : 1 h 17 min
Bit rate : 41.2 kb/s
Count of elements : 1738
Stream size : 22.8 MiB (0%)
Title : Spanish-PGS
Language : Spanish
Default : No
Forced : No
Original source medium : Blu-ray

Text #6
ID : 17
ID in the original source medium : 4769 (0x12A1)
Format : PGS
Muxing mode : zlib
Codec ID : S_HDMV/PGS
Codec ID/Info : Picture based subtitle format used on BDs/HD-DVDs
Duration : 14 s 494 ms
Bit rate : 72.0 kb/s
Count of elements : 8
Stream size : 127 KiB (0%)
Title : Spanish-PGS
Language : Spanish
Default : No
Forced : No
Original source medium : Blu-ray

Text #7
ID : 18
ID in the original source medium : 4770 (0x12A2)
Format : PGS
Muxing mode : zlib
Codec ID : S_HDMV/PGS
Codec ID/Info : Picture based subtitle format used on BDs/HD-DVDs
Duration : 1 h 17 min
Bit rate : 48.6 kb/s
Count of elements : 2134
Stream size : 27.1 MiB (0%)
Title : English-PGS
Language : English
Default : No
Forced : No
Original source medium : Blu-ray

Text #8
ID : 19
ID in the original source medium : 4770 (0x12A2)
Format : PGS
Muxing mode : zlib
Codec ID : S_HDMV/PGS
Codec ID/Info : Picture based subtitle format used on BDs/HD-DVDs
Duration : 14 s 494 ms
Bit rate : 66.3 kb/s
Count of elements : 8
Stream size : 117 KiB (0%)
Title : English-FORCED-PGS
Language : English
Default : No
Forced : No
Original source medium : Blu-ray

Menu
00:00:00.000 : en:Chapter 01
00:04:05.119 : en:Chapter 02
00:08:23.753 : en:Chapter 03
00:13:13.793 : en:Chapter 04
00:24:16.705 : en:Chapter 05
00:26:03.979 : en:Chapter 06
00:27:39.157 : en:Chapter 07
00:33:01.980 : en:Chapter 08
00:36:20.511 : en:Chapter 09
00:45:31.270 : en:Chapter 10
00:53:58.485 : en:Chapter 11
00:59:39.325 : en:Chapter 12
01:06:23.354 : en:Chapter 13
01:13:59.143 : en:Chapter 14
01:17:30.437 : en:Chapter 15

本帖子中包含更多资源

您需要 登录 才可以下载或查看,没有帐号?立即注册

x
回复

使用道具 举报

0

主题

452

帖子

2607

积分

金牌会员

Rank: 6Rank: 6

积分
2607
发表于 2020-9-27 19:40:40 | 显示全部楼层
感谢楼主分享
回复

使用道具 举报

0

主题

737

帖子

3206

积分

论坛元老

Rank: 8Rank: 8

积分
3206
发表于 2020-9-27 21:14:29 | 显示全部楼层
感谢楼主分享
回复

使用道具 举报

0

主题

695

帖子

5502

积分

VIP永久

Rank: 12Rank: 12Rank: 12

积分
5502
发表于 2020-9-28 12:20:50 | 显示全部楼层
感谢楼主分享!!!
回复

使用道具 举报

0

主题

477

帖子

6049

积分

论坛元老

Rank: 8Rank: 8

积分
6049
发表于 2020-9-30 00:10:22 | 显示全部楼层
感谢楼主分享!!!
回复

使用道具 举报

0

主题

73

帖子

377

积分

中级会员

Rank: 3Rank: 3

积分
377
发表于 2020-10-2 01:23:41 | 显示全部楼层
经典中经典 谢谢分享
回复

使用道具 举报

0

主题

3

帖子

18

积分

新手上路

Rank: 1

积分
18
发表于 2020-10-10 23:57:43 | 显示全部楼层
十分感谢lz的无私分享,辛苦了
回复

使用道具 举报

您需要登录后才可以回帖 登录 | 立即注册

本版积分规则

QQ|Archiver|手机版|小黑屋|原盘天堂 盘盘多 点击这里给我发消息

GMT+8, 2020-10-27 09:05 , Processed in 0.065541 second(s), 24 queries .

Powered by Discuz! X3.4

Copyright © 2001-2020, Tencent Cloud.

快速回复 返回顶部 返回列表