请选择 进入手机版 | 继续访问电脑版
本站原来Q群已取消,请原Q群会员和其他未入群会员加原盘天堂新官方QQ群713428235【盘盘多】,验证信息填写您在论坛的会员名,不填会员名的无法入群哈,进群后修改您的群名片名字为您在论坛的会员名,请务必修改,否则群成员多了不知道您是哪个会员,无法为您发送高速链接!

原盘天堂

 找回密码
 立即注册
查看: 187|回复: 7

2d蓝光原盘bdmv 无限接近 英语原版 proximity.2020.1080p.bluray.avc.dts-hd.ma.5.1[41.44 GB]

[复制链接]

5448

主题

5975

帖子

129万

积分

管理员

Rank: 18Rank: 18Rank: 18Rank: 18Rank: 18

积分
1295117
发表于 2020-9-26 21:39:32 | 显示全部楼层 |阅读模式








无限接近 Proximity (2020)

导演: 艾瑞克·德缪西
编剧: 艾瑞克·德缪西 / Jason Mitcheltree
主演: 瑞恩·马松 / Highdee Kuan / 克里斯蒂安·普伦蒂斯 / 肖·琼斯 / 唐·斯克里布纳 / 更多...
类型: 剧情 / 科幻
制片国家/地区: 美国
语言: 英语
上映日期: 2020-05-15(美国)
片长: 119分钟
又名: 异星物语(台) / 外星人绑架 / 外太空神秘信号

豆瓣评分
4.1
552人评价
5星3.1%
4星4.4%
3星19.5%
2星38.9%
1星34.1%
好于 5% 科幻片

剧情简介 · · · · · ·
  伊萨克是一位为美国宇航局工作的年轻科学家,他通过工作中的一颗卫星意外地接收到来自太空的神秘信号,从而解决了日常生活中的困难。当他开始调查坠机地点时,他的整个世界都颠倒了——他被外星人绑架了。他发现他的相机就在他旁边,意识到他把整件事都录下来了。现在唯一的问题是当他试图告诉他最亲近的人,他们不相信他。

DISC INFO:

Disc Title:     Proximity.2020.1080p.BluRay.AVC.DTS-HD.MA.5.1-FGT
Disc Size:      44,492,260,280 bytes
Protection:     AACS
Extras:         BD-Java
BDInfo:         0.7.5.9 (compatible layout created by DVDFab 11.0.8.9)

PLAYLIST REPORT:

Name:                   01002.MPLS  
Length:                 1:59:23.197 (h:m:s.ms)
Size:                   38,420,404,224 bytes
Total Bitrate:          42.91 Mbps

VIDEO:

Codec                   Bitrate             Description   
-----                   -------             -----------   
MPEG-4 AVC Video        36000 kbps          1080p / 23.976 fps / 16:9 / High Profile 4.1

AUDIO:

Codec                           Language        Bitrate         Description   
-----                           --------        -------         -----------   
DTS-HD Master Audio             English         2652 kbps       5.1 / 48 kHz / 2652 kbps / 24-bit (DTS Core: 5.1 / 48 kHz / 1509 kbps / 24-bit)
DTS-HD Master Audio             English         1659 kbps       2.0 / 48 kHz / 1659 kbps / 24-bit (DTS Core: 2.0 / 48 kHz / 1509 kbps / 24-bit)
Dolby Digital Audio             English         192 kbps        2.0 / 48 kHz / 192 kbps

SUBTITLES:

Codec                           Language        Bitrate         Description   
-----                           --------        -------         -----------   
Presentation Graphics           English         30.083 kbps   

Video
ID : 1
ID in the original source medium : 4113 (0x1011)
Format : AVC
Format/Info : Advanced Video Codec
Format profile : [email protected]
Format settings : CABAC / 4 Ref Frames
Format settings, CABAC : Yes
Format settings, Reference frames : 4 frames
Format settings, GOP : M=3, N=12
Codec ID : V_MPEG4/ISO/AVC
Duration : 1 h 59 min
Bit rate mode : Constant
Bit rate : 36.0 Mb/s
Width : 1 920 pixels
Height : 1 080 pixels
Display aspect ratio : 16:9
Frame rate mode : Constant
Frame rate : 23.976 (24000/1001) FPS
Color space : YUV
Chroma subsampling : 4:2:0
Bit depth : 8 bits
Scan type : Progressive
Bits/(Pixel*Frame) : 0.724
Stream size : 28.7 GiB (88%)
Title : Proximity.2020.1080p.BluRay.REMUX.AVC.DTS-HD.MA.5.1-FGT
Language : English
Default : No
Forced : No
Original source medium : Blu-ray

Audio #1
ID : 2
ID in the original source medium : 4352 (0x1100)
Format : DTS XLL
Format/Info : Digital Theater Systems
Commercial name : DTS-HD Master Audio
Codec ID : A_DTS
Duration : 1 h 59 min
Bit rate mode : Variable
Bit rate : 2 652 kb/s
Channel(s) : 6 channels
Channel layout : C L R Ls Rs LFE
Sampling rate : 48.0 kHz
Frame rate : 93.750 FPS (512 SPF)
Bit depth : 24 bits
Compression mode : Lossless
Stream size : 2.21 GiB (7%)
Title : Proximity.2020.1080p.BluRay.REMUX.AVC.DTS-HD.MA.5.1-FGT
Language : English
Default : Yes
Forced : No
Original source medium : Blu-ray

Audio #2
ID : 3
ID in the original source medium : 4353 (0x1101)
Format : DTS XLL
Format/Info : Digital Theater Systems
Commercial name : DTS-HD Master Audio
Codec ID : A_DTS
Duration : 1 h 59 min
Bit rate mode : Variable
Bit rate : 1 659 kb/s
Channel(s) : 2 channels
Channel layout : L R
Sampling rate : 48.0 kHz
Frame rate : 93.750 FPS (512 SPF)
Bit depth : 24 bits
Compression mode : Lossless
Stream size : 1.38 GiB (4%)
Title : Proximity.2020.1080p.BluRay.REMUX.AVC.DTS-HD.MA.5.1-FGT
Language : English
Default : No
Forced : No
Original source medium : Blu-ray

Audio #3
ID : 4
ID in the original source medium : 4354 (0x1102)
Format : AC-3
Format/Info : Audio Coding 3
Commercial name : Dolby Digital
Codec ID : A_AC3
Duration : 1 h 59 min
Bit rate mode : Constant
Bit rate : 192 kb/s
Channel(s) : 2 channels
Channel layout : L R
Sampling rate : 48.0 kHz
Frame rate : 31.250 FPS (1536 SPF)
Bit depth : 16 bits
Compression mode : Lossy
Stream size : 164 MiB (0%)
Title : Proximity.2020.1080p.BluRay.REMUX.AVC.DTS-HD.MA.5.1-FGT
Language : English
Service kind : Complete Main
Default : No
Forced : No
Original source medium : Blu-ray

Text #1
ID : 5
Format : UTF-8
Codec ID : S_TEXT/UTF8
Codec ID/Info : UTF-8 Plain Text
Duration : 1 h 58 min
Bit rate : 57 b/s
Count of elements : 1718
Stream size : 49.4 KiB (0%)
Title : English-SRT
Language : English
Default : Yes
Forced : No

Text #2
ID : 6
ID in the original source medium : 4608 (0x1200)
Format : PGS
Muxing mode : zlib
Codec ID : S_HDMV/PGS
Codec ID/Info : Picture based subtitle format used on BDs/HD-DVDs
Duration : 1 h 58 min
Bit rate : 30.4 kb/s
Count of elements : 2448
Stream size : 25.7 MiB (0%)
Title : English-PGS
Language : English
Default : No
Forced : No
Original source medium : Blu-ray

Menu
00:00:00.000 : en:Chapter 01
00:09:34.073 : en:Chapter 02
00:18:52.089 : en:Chapter 03
00:28:40.051 : en:Chapter 04
00:40:51.240 : en:Chapter 05
00:47:49.867 : en:Chapter 06
01:01:10.750 : en:Chapter 07
01:16:45.142 : en:Chapter 08
01:27:27.951 : en:Chapter 09
01:35:14.583 : en:Chapter 10
01:47:25.981 : en:Chapter 11
01:56:02.163 : en:Chapter 12
01:59:22.280 : en:Chapter 13

本帖子中包含更多资源

您需要 登录 才可以下载或查看,没有帐号?立即注册

x
回复

使用道具 举报

0

主题

695

帖子

5502

积分

VIP永久

Rank: 12Rank: 12Rank: 12

积分
5502
发表于 2020-9-27 09:53:50 | 显示全部楼层
感谢楼主分享!!!
回复

使用道具 举报

0

主题

737

帖子

3206

积分

论坛元老

Rank: 8Rank: 8

积分
3206
发表于 2020-9-27 21:13:13 | 显示全部楼层
感谢楼主分享
回复

使用道具 举报

0

主题

477

帖子

6049

积分

论坛元老

Rank: 8Rank: 8

积分
6049
发表于 2020-9-30 00:11:13 | 显示全部楼层
感谢楼主分享!!!
回复

使用道具 举报

0

主题

452

帖子

2607

积分

金牌会员

Rank: 6Rank: 6

积分
2607
发表于 2020-9-30 08:04:28 | 显示全部楼层
got very positive feedback
回复

使用道具 举报

0

主题

46

帖子

175

积分

注册会员

Rank: 2

积分
175
发表于 2020-10-4 18:07:42 | 显示全部楼层
谢谢分享 收下
回复

使用道具 举报

0

主题

452

帖子

2607

积分

金牌会员

Rank: 6Rank: 6

积分
2607
发表于 2020-10-5 22:03:28 | 显示全部楼层
感谢楼主分享
回复

使用道具 举报

0

主题

679

帖子

5181

积分

论坛元老

Rank: 8Rank: 8

积分
5181
发表于 2020-10-6 04:55:25 | 显示全部楼层
感谢楼主分享!
回复

使用道具 举报

您需要登录后才可以回帖 登录 | 立即注册

本版积分规则

QQ|Archiver|手机版|小黑屋|原盘天堂 盘盘多 点击这里给我发消息

GMT+8, 2020-10-27 08:05 , Processed in 0.066561 second(s), 24 queries .

Powered by Discuz! X3.4

Copyright © 2001-2020, Tencent Cloud.

快速回复 返回顶部 返回列表