请选择 进入手机版 | 继续访问电脑版
本站原来Q群已取消,请原Q群会员和其他未入群会员加原盘天堂新官方QQ群713428235【盘盘多】,验证信息填写您在论坛的会员名,不填会员名的无法入群哈,进群后修改您的群名片名字为您在论坛的会员名,请务必修改,否则群成员多了不知道您是哪个会员,无法为您发送高速链接!

原盘天堂

 找回密码
 立即注册
查看: 145|回复: 8

2d蓝光原盘bdmv 绝命鳄口 英语原版 black.water.abyss.2020.1080p.bluray.avc.dts-hd.ma.5.1[21.23 GB]

[复制链接]

5448

主题

5975

帖子

129万

积分

管理员

Rank: 18Rank: 18Rank: 18Rank: 18Rank: 18

积分
1295140
发表于 2020-9-26 21:06:59 | 显示全部楼层 |阅读模式








绝命鳄口 Black Water: Abyss (2020)

导演: 安德鲁·陶克吉
编剧: 约翰·莱德利 / 莎拉·史密斯
主演: 杰西卡·麦克娜美 / 卢克·米切尔 / 阿玛莉·沃德 / 安东尼·J·夏普 / 本杰明·霍特杰斯 / 更多...
类型: 剧情 / 动作 / 惊悚
制片国家/地区: 澳大利亚 / 美国
语言: 英语
上映日期: 2020-07-04(英国) / 2020-08-07(美国)
片长: 99分钟
又名: 黑水:深渊 / Black Water: The Abyss

豆瓣评分
4.3
357人评价
5星1.7%
4星3.8%
3星27.7%
2星42.1%
1星24.7%

剧情简介 · · · · · ·
  一对喜欢冒险的夫妇说服他们的朋友去探索澳大利亚北部森林中一个从未有人踏入的洞穴系统。忽然暴风雨来临,大家决定进入地下洞穴避难。不想洪水冲进了洞穴,氧气含量逐渐下降,大家被困在了一个完全未知的环境里。他们没有料到的是,潮湿的空气和不断上升的水位只是这次旅程最小的挑战,洪水还带来了最危险的捕食者:一群危险又饥饿的鳄鱼。当危险逐渐升温,这群朋友之间彼此隐瞒的秘密渐渐被揭开,他们争吵打斗、彼此背叛,只为在这个险境中生存下来。

DISC INFO:

Disc Title:     Black.Water.Abyss.2020.1080p.BluRay.AVC.DTS-HD.MA.5.1-FGT
Disc Size:      22,793,550,353 bytes
Protection:     AACS
BDInfo:         0.7.5.9 (compatible layout created by DVDFab 11.1.0.7)

PLAYLIST REPORT:

Name:                   00125.MPLS  
Length:                 1:38:39.872 (h:m:s.ms)
Size:                   19,037,134,848 bytes
Total Bitrate:          25.73 Mbps

VIDEO:

Codec                   Bitrate             Description   
-----                   -------             -----------   
MPEG-4 AVC Video        19988 kbps          1080p / 23.976 fps / 16:9 / High Profile 4.1

AUDIO:

Codec                           Language        Bitrate         Description   
-----                           --------        -------         -----------   
DTS-HD Master Audio             English         1847 kbps       5.1 / 48 kHz / 1847 kbps / 16-bit (DTS Core: 5.1 / 48 kHz / 1509 kbps / 16-bit)
DTS-HD Master Audio             English         1577 kbps       2.0 / 48 kHz / 1577 kbps / 16-bit (DTS Core: 2.0 / 48 kHz / 1509 kbps / 16-bit)
Dolby Digital Audio             English         640 kbps        2.0 / 48 kHz / 640 kbps

SUBTITLES:

Codec                           Language        Bitrate         Description   
-----                           --------        -------         -----------   
Presentation Graphics           English         16.334 kbps  

Video
ID : 1
ID in the original source medium : 4113 (0x1011)
Format : AVC
Format/Info : Advanced Video Codec
Format profile : [email protected]
Format settings : CABAC / 4 Ref Frames
Format settings, CABAC : Yes
Format settings, Reference frames : 4 frames
Codec ID : V_MPEG4/ISO/AVC
Duration : 1 h 38 min
Bit rate mode : Variable
Bit rate : 19.7 Mb/s
Maximum bit rate : 38.0 Mb/s
Width : 1 920 pixels
Height : 1 080 pixels
Display aspect ratio : 16:9
Frame rate mode : Constant
Frame rate : 23.976 (24000/1001) FPS
Color space : YUV
Chroma subsampling : 4:2:0
Bit depth : 8 bits
Scan type : Progressive
Bits/(Pixel*Frame) : 0.395
Stream size : 13.5 GiB (83%)
Title : Black.Water.Abyss.2020.1080p.BluRay.REMUX.AVC.DTS-HD.MA.5.1-FGT
Language : English
Default : No
Forced : No
Original source medium : Blu-ray

Audio #1
ID : 2
ID in the original source medium : 4352 (0x1100)
Format : DTS XLL
Format/Info : Digital Theater Systems
Commercial name : DTS-HD Master Audio
Codec ID : A_DTS
Duration : 1 h 38 min
Bit rate mode : Variable
Bit rate : 1 847 kb/s
Channel(s) : 6 channels
Channel layout : C L R Ls Rs LFE
Sampling rate : 48.0 kHz
Frame rate : 93.750 FPS (512 SPF)
Bit depth : 16 bits
Compression mode : Lossless
Stream size : 1.27 GiB (8%)
Title : Black.Water.Abyss.2020.1080p.BluRay.REMUX.AVC.DTS-HD.MA.5.1-FGT
Language : English
Default : Yes
Forced : No
Original source medium : Blu-ray

Audio #2
ID : 3
ID in the original source medium : 4353 (0x1101)
Format : DTS XLL
Format/Info : Digital Theater Systems
Commercial name : DTS-HD Master Audio
Codec ID : A_DTS
Duration : 1 h 38 min
Bit rate mode : Variable
Bit rate : 1 577 kb/s
Channel(s) : 2 channels
Channel layout : L R
Sampling rate : 48.0 kHz
Frame rate : 93.750 FPS (512 SPF)
Bit depth : 16 bits
Compression mode : Lossless
Stream size : 1.09 GiB (7%)
Title : Black.Water.Abyss.2020.1080p.BluRay.REMUX.AVC.DTS-HD.MA.5.1-FGT
Language : English
Default : No
Forced : No
Original source medium : Blu-ray

Audio #3
ID : 4
ID in the original source medium : 4354 (0x1102)
Format : AC-3
Format/Info : Audio Coding 3
Commercial name : Dolby Digital
Codec ID : A_AC3
Duration : 1 h 38 min
Bit rate mode : Constant
Bit rate : 640 kb/s
Channel(s) : 2 channels
Channel layout : L R
Sampling rate : 48.0 kHz
Frame rate : 31.250 FPS (1536 SPF)
Compression mode : Lossy
Stream size : 452 MiB (3%)
Title : Black.Water.Abyss.2020.1080p.BluRay.REMUX.AVC.DTS-HD.MA.5.1-FGT
Language : English
Service kind : Complete Main
Default : No
Forced : No
Original source medium : Blu-ray

Text #1
ID : 5
Format : UTF-8
Codec ID : S_TEXT/UTF8
Codec ID/Info : UTF-8 Plain Text
Duration : 1 h 33 min
Bit rate : 24 b/s
Count of elements : 781
Stream size : 16.6 KiB (0%)
Title : English-SRT
Language : English
Default : Yes
Forced : No

Text #2
ID : 6
ID in the original source medium : 4608 (0x1200)
Format : PGS
Muxing mode : zlib
Codec ID : S_HDMV/PGS
Codec ID/Info : Picture based subtitle format used on BDs/HD-DVDs
Duration : 1 h 37 min
Bit rate : 16.6 kb/s
Count of elements : 1658
Stream size : 11.5 MiB (0%)
Title : English-PGS
Language : English
Default : No
Forced : No
Original source medium : Blu-ray

Menu
00:00:00.000 : en:Chapter 01
00:06:09.744 : en:Chapter 02
00:12:47.224 : en:Chapter 03
00:19:29.376 : en:Chapter 04
00:24:02.315 : en:Chapter 05
00:29:15.295 : en:Chapter 06
00:37:25.326 : en:Chapter 07
00:43:09.003 : en:Chapter 08
00:49:28.924 : en:Chapter 09
00:55:25.989 : en:Chapter 10
01:01:00.365 : en:Chapter 11
01:08:11.212 : en:Chapter 12
01:15:20.724 : en:Chapter 13
01:21:24.629 : en:Chapter 14
01:26:50.747 : en:Chapter 15
01:34:49.517 : en:Chapter 16

本帖子中包含更多资源

您需要 登录 才可以下载或查看,没有帐号?立即注册

x
回复

使用道具 举报

0

主题

183

帖子

1478

积分

金牌会员

Rank: 6Rank: 6

积分
1478
发表于 2020-9-27 09:14:45 | 显示全部楼层
我看这部电影不错噢 谢谢楼主!
回复

使用道具 举报

0

主题

695

帖子

5502

积分

VIP永久

Rank: 12Rank: 12Rank: 12

积分
5502
发表于 2020-9-27 09:54:33 | 显示全部楼层

感谢楼主分享!!!
回复

使用道具 举报

0

主题

737

帖子

3206

积分

论坛元老

Rank: 8Rank: 8

积分
3206
发表于 2020-9-27 21:13:55 | 显示全部楼层
感谢楼主分享
回复

使用道具 举报

0

主题

477

帖子

6049

积分

论坛元老

Rank: 8Rank: 8

积分
6049
发表于 2020-9-30 00:11:58 | 显示全部楼层
感谢楼主分享!!!
回复

使用道具 举报

0

主题

477

帖子

6049

积分

论坛元老

Rank: 8Rank: 8

积分
6049
发表于 2020-9-30 00:16:25 | 显示全部楼层
感谢楼主分享!!!
回复

使用道具 举报

0

主题

73

帖子

377

积分

中级会员

Rank: 3Rank: 3

积分
377
发表于 2020-10-4 09:23:44 | 显示全部楼层
灾难片 很喜欢啊
回复

使用道具 举报

0

主题

679

帖子

5181

积分

论坛元老

Rank: 8Rank: 8

积分
5181
发表于 2020-10-6 04:54:54 | 显示全部楼层
感谢楼主分享!
回复

使用道具 举报

0

主题

5

帖子

25

积分

新手上路

Rank: 1

积分
25
发表于 2020-10-8 08:41:16 | 显示全部楼层
感谢分享
回复

使用道具 举报

您需要登录后才可以回帖 登录 | 立即注册

本版积分规则

QQ|Archiver|手机版|小黑屋|原盘天堂 盘盘多 点击这里给我发消息

GMT+8, 2020-10-27 08:57 , Processed in 0.064501 second(s), 24 queries .

Powered by Discuz! X3.4

Copyright © 2001-2020, Tencent Cloud.

快速回复 返回顶部 返回列表