请选择 进入手机版 | 继续访问电脑版
本站原来Q群已取消,请原Q群会员和其他未入群会员加原盘天堂新官方QQ群713428235【盘盘多】,验证信息填写您在论坛的会员名,不填会员名的无法入群哈,进群后修改您的群名片名字为您在论坛的会员名,请务必修改,否则群成员多了不知道您是哪个会员,无法为您发送高速链接!

原盘天堂

 找回密码
 立即注册
查看: 150|回复: 9

4k蓝光原盘bdmv 后代 英语原版 offspring.2009.2160p.bluray.hevc.dts-hd.ma.5.1[60.4 GB]

[复制链接]

5448

主题

5975

帖子

129万

积分

管理员

Rank: 18Rank: 18Rank: 18Rank: 18Rank: 18

积分
1295117
发表于 2020-9-26 10:58:05 | 显示全部楼层 |阅读模式








后代 Offspring (2009)

导演: Andrew van den Houten
编剧: 杰克·珂强
主演: Art Hindle / Pollyanna McIntosh / Spencer List / Tommy Nelson / Andrew Elvis Miller / 更多...
类型: 恐怖
语言: 英语
上映日期: 2009-02-05
片长: 79分钟

豆瓣评分
4.0
154人评价
5星2.0%
4星4.1%
3星21.4%
2星36.7%
1星35.7%

剧情简介 · · · · · ·
  本片根据作家Jack Ketchum,美国畅销排行榜第一名的同名小说改编而来;一个被人们认为已经死的杀人狂魔,从地狱归来,必定会掀起一场新一轮的血雨腥风,玛瑞和她的孩子们,成为了“死神”的目标……

DISC INFO:

Disc Title:     Offspring.2009.MULTi.COMPLETE.UHD.BLURAY-SharpHD
Disc Size:      64,852,918,052 bytes
Protection:     AACS2
Extras:         Ultra HD
BDInfo:         0.7.5.9 (compatible layout created by DVDFab 11.1.0.7)

PLAYLIST REPORT:

Name:                   00001.MPLS  
Length:                 1:19:09.786 (h:m:s.ms)
Size:                   45,334,548,480 bytes
Total Bitrate:          76.36 Mbps

(*) Indicates included stream hidden by this playlist.

VIDEO:

Codec                   Bitrate             Description   
-----                   -------             -----------   
MPEG-H HEVC Video       67400 kbps          2160p / 23.976 fps / 16:9 / Main 10 @ Level 5.1 @ High / 4:2:0 / 10 bits / 1000nits / HDR10+ v1 Profile B / BT.2020

AUDIO:

Codec                           Language        Bitrate         Description   
-----                           --------        -------         -----------   
DTS-HD Master Audio             German          2437 kbps       5.1 / 48 kHz / 2437 kbps / 16-bit (DTS Core: 5.1 / 48 kHz / 1509 kbps / 16-bit)
DTS-HD Master Audio             English         2336 kbps       5.1 / 48 kHz / 2336 kbps / 16-bit (DTS Core: 5.1 / 48 kHz / 1509 kbps / 16-bit)
* Dolby Digital Audio           English         224 kbps        2.0 / 48 kHz / 224 kbps
* Dolby Digital Audio           English         224 kbps        2.0 / 48 kHz / 224 kbps

SUBTITLES:

Codec                           Language        Bitrate         Description   
-----                           --------        -------         -----------   
Presentation Graphics           German          20.956 kbps                    
Presentation Graphics           German          0.546 kbps      

Video
ID : 1
ID in the original source medium : 4113 (0x1011)
Format : HEVC
Format/Info : High Efficiency Video Coding
Format profile : Main [email protected]@High
HDR format : SMPTE ST 2094 App 4, Version 1, HDR10+ Profile B compatible
Codec ID : V_MPEGH/ISO/HEVC
Duration : 1 h 19 min
Bit rate : 67.4 Mb/s
Width : 3 840 pixels
Height : 2 160 pixels
Display aspect ratio : 16:9
Frame rate mode : Constant
Frame rate : 23.976 (24000/1001) FPS
Color space : YUV
Chroma subsampling : 4:2:0 (Type 2)
Bit depth : 10 bits
Bits/(Pixel*Frame) : 0.339
Stream size : 37.3 GiB (93%)
Title : Offspring.2009.2160p.BluRay.REMUX.HEVC.DTS-HD.MA.5.1-FGT
Language : English
Default : No
Forced : No
Color range : Limited
Color primaries : BT.2020
Transfer characteristics : PQ
Matrix coefficients : BT.2020 non-constant
Mastering display color primaries : Display P3
Mastering display luminance : min: 0.0050 cd/m2, max: 1000 cd/m2
Maximum Content Light Level : 1000 cd/m2
Maximum Frame-Average Light Level : 300 cd/m2
Original source medium : Blu-ray

Audio #1
ID : 2
ID in the original source medium : 4353 (0x1101)
Format : DTS XLL
Format/Info : Digital Theater Systems
Commercial name : DTS-HD Master Audio
Codec ID : A_DTS
Duration : 1 h 19 min
Bit rate mode : Variable
Bit rate : 2 336 kb/s
Channel(s) : 6 channels
Channel layout : C L R Ls Rs LFE
Sampling rate : 48.0 kHz
Frame rate : 93.750 FPS (512 SPF)
Bit depth : 16 bits
Compression mode : Lossless
Stream size : 1.29 GiB (3%)
Title : Offspring.2009.2160p.BluRay.REMUX.HEVC.DTS-HD.MA.5.1-FGT
Language : English
Default : Yes
Forced : No
Original source medium : Blu-ray

Audio #2
ID : 3
ID in the original source medium : 4352 (0x1100)
Format : DTS XLL
Format/Info : Digital Theater Systems
Commercial name : DTS-HD Master Audio
Codec ID : A_DTS
Duration : 1 h 19 min
Bit rate mode : Variable
Bit rate : 2 437 kb/s
Channel(s) : 6 channels
Channel layout : C L R Ls Rs LFE
Sampling rate : 48.0 kHz
Frame rate : 93.750 FPS (512 SPF)
Bit depth : 16 bits
Compression mode : Lossless
Stream size : 1.35 GiB (3%)
Title : Offspring.2009.2160p.BluRay.REMUX.HEVC.DTS-HD.MA.5.1-FGT
Language : German
Default : No
Forced : No
Original source medium : Blu-ray

Text #1
ID : 4
Format : UTF-8
Codec ID : S_TEXT/UTF8
Codec ID/Info : UTF-8 Plain Text
Duration : 1 h 10 min
Bit rate : 37 b/s
Count of elements : 593
Stream size : 19.3 KiB (0%)
Title : English-SRT
Language : English
Default : Yes
Forced : No

Text #2
ID : 5
ID in the original source medium : 4768 (0x12A0)
Format : PGS
Muxing mode : zlib
Codec ID : S_HDMV/PGS
Codec ID/Info : Picture based subtitle format used on BDs/HD-DVDs
Duration : 1 h 8 min
Bit rate : 24.1 kb/s
Count of elements : 952
Stream size : 11.9 MiB (0%)
Title : German-PGS
Language : German
Default : No
Forced : No
Original source medium : Blu-ray

Text #3
ID : 6
ID in the original source medium : 4769 (0x12A1)
Format : PGS
Muxing mode : zlib
Codec ID : S_HDMV/PGS
Codec ID/Info : Picture based subtitle format used on BDs/HD-DVDs
Duration : 25 min 58 s
Bit rate : 1 664 b/s
Count of elements : 58
Stream size : 317 KiB (0%)
Title : German-PGS
Language : German
Default : No
Forced : No
Original source medium : Blu-ray

Menu
00:00:00.000 : en:Chapter 01
00:07:35.788 : en:Chapter 02
00:14:30.244 : en:Chapter 03
00:24:57.245 : en:Chapter 04
00:29:46.826 : en:Chapter 05
00:39:41.879 : en:Chapter 06
00:48:38.332 : en:Chapter 07
00:58:46.898 : en:Chapter 08
01:04:53.306 : en:Chapter 09
01:08:24.517 : en:Chapter 10
01:11:54.893 : en:Chapter 11
01:15:24.228 : en:Chapter 12

本帖子中包含更多资源

您需要 登录 才可以下载或查看,没有帐号?立即注册

x
回复

使用道具 举报

0

主题

695

帖子

5502

积分

VIP永久

Rank: 12Rank: 12Rank: 12

积分
5502
发表于 2020-9-26 11:31:54 | 显示全部楼层
感谢楼主分享!!!
回复

使用道具 举报

0

主题

737

帖子

3206

积分

论坛元老

Rank: 8Rank: 8

积分
3206
发表于 2020-9-27 21:15:48 | 显示全部楼层
感谢楼主分享
回复

使用道具 举报

0

主题

314

帖子

1439

积分

金牌会员

Rank: 6Rank: 6

积分
1439
发表于 2020-9-28 11:21:58 | 显示全部楼层
thank you very much
回复

使用道具 举报

0

主题

477

帖子

6049

积分

论坛元老

Rank: 8Rank: 8

积分
6049
发表于 2020-9-30 00:21:39 | 显示全部楼层
感谢楼主分享!!!
回复

使用道具 举报

0

主题

452

帖子

2607

积分

金牌会员

Rank: 6Rank: 6

积分
2607
发表于 2020-10-2 22:06:49 | 显示全部楼层
感谢楼主分享
回复

使用道具 举报

0

主题

73

帖子

377

积分

中级会员

Rank: 3Rank: 3

积分
377
发表于 2020-10-4 11:22:35 | 显示全部楼层
封面带感,感谢分享
回复

使用道具 举报

0

主题

679

帖子

5181

积分

论坛元老

Rank: 8Rank: 8

积分
5181
发表于 2020-10-6 04:54:02 | 显示全部楼层
感谢楼主分享!
回复

使用道具 举报

0

主题

143

帖子

1277

积分

金牌会员

Rank: 6Rank: 6

积分
1277
发表于 2020-10-10 15:08:17 | 显示全部楼层
谢谢楼主分享
回复

使用道具 举报

0

主题

91

帖子

475

积分

中级会员

Rank: 3Rank: 3

积分
475
发表于 前天 09:53 | 显示全部楼层
thank you very much
回复

使用道具 举报

您需要登录后才可以回帖 登录 | 立即注册

本版积分规则

QQ|Archiver|手机版|小黑屋|原盘天堂 盘盘多 点击这里给我发消息

GMT+8, 2020-10-27 07:55 , Processed in 0.070208 second(s), 24 queries .

Powered by Discuz! X3.4

Copyright © 2001-2020, Tencent Cloud.

快速回复 返回顶部 返回列表