请选择 进入手机版 | 继续访问电脑版
本站原来Q群已取消,请原Q群会员和其他未入群会员加原盘天堂新官方QQ群713428235【盘盘多】,验证信息填写您在论坛的会员名,不填会员名的无法入群哈,进群后修改您的群名片名字为您在论坛的会员名,请务必修改,否则群成员多了不知道您是哪个会员,无法为您发送高速链接!

原盘天堂

 找回密码
 立即注册
查看: 170|回复: 10

4k蓝光原盘bdmv 女人 英语原版 the.woman.2011.2160p.bluray.hevc.dts-hd.ma.5.1[60.97 GB]

[复制链接]

5448

主题

5975

帖子

129万

积分

管理员

Rank: 18Rank: 18Rank: 18Rank: 18Rank: 18

积分
1295128
发表于 2020-9-26 10:33:18 | 显示全部楼层 |阅读模式








女人 The Woman (2011)

导演: 拉齐·马凯
编剧: 拉齐·马凯 / 杰克·珂强
主演: 安吉拉·贝蒂斯 / 宝拉雅娜·麦金托什 / 肖恩·布里吉格斯
类型: 恐怖
制片国家/地区: 美国
语言: 英语
上映日期: 2011
片长: 103分钟
又名: 野蛮女人

豆瓣评分
6.4
1768人评价
5星7.9%
4星26.1%
3星48.3%
2星14.5%
1星3.2%
好于 62% 恐怖片

情简介 · · · · · ·
  影片讲述了一个从小被抛弃于森林,依照动物生存模式存活下来的女人。被一个男人掳掠回家并且受尽欺凌。这家人中,男主人极度大男子主义,仇视女人。小儿子因为受父亲教导也对女人极不尊敬。懦弱并逆来顺受的母亲,被父亲侮辱而怀孕的大女儿,以及不谙世事的小女儿。故事的最后,大女儿在极度绝望和恐惧的支配下放了野女人,野女人杀了她的父母和弟弟,带走了她的妹妹。   本片以不太恐怖的氛围,却深刻的暗喻了一个至今仍然存在的严重的社会现象,男人应该如何看待女人,女人应该如何正确扮演家庭中的角色。

DISC INFO:

Disc Title:     The.Woman.2011.MULTi.COMPLETE.UHD.BLURAY-SharpHD
Disc Size:      65,464,027,010 bytes
Protection:     AACS2
Extras:         Ultra HD
BDInfo:         0.7.5.9 (compatible layout created by DVDFab 11.1.0.7)

PLAYLIST REPORT:

Name:                   00010.MPLS  
Length:                 1:43:06.180 (h:m:s.ms)
Size:                   48,675,643,392 bytes
Total Bitrate:          62.95 Mbps

(*) Indicates included stream hidden by this playlist.

VIDEO:

Codec                   Bitrate             Description   
-----                   -------             -----------   
MPEG-H HEVC Video       53807 kbps          2160p / 23.976 fps / 16:9 / Main 10 @ Level 5.1 @ High / 4:2:0 / 10 bits / 1000nits / HDR10+ v1 Profile A / BT.2020

AUDIO:

Codec                           Language        Bitrate         Description   
-----                           --------        -------         -----------   
DTS-HD Master Audio             German          2695 kbps       7.1 / 48 kHz / 2695 kbps / 16-bit (DTS Core: 5.1 / 48 kHz / 1509 kbps / 16-bit)
DTS-HD Master Audio             English         2328 kbps       5.1 / 48 kHz / 2328 kbps / 16-bit (DTS Core: 5.1 / 48 kHz / 1509 kbps / 16-bit)
Dolby Digital Audio             English         224 kbps        2.0 / 48 kHz / 224 kbps
* Dolby Digital Audio           English         224 kbps        2.0 / 48 kHz / 224 kbps
* Dolby Digital Audio           English         224 kbps        2.0 / 48 kHz / 224 kbps
* Dolby Digital Audio           English         224 kbps        2.0 / 48 kHz / 224 kbps

SUBTITLES:

Codec                           Language        Bitrate         Description   
-----                           --------        -------         -----------   
Presentation Graphics           German          0.011 kbps                     
Presentation Graphics           German          23.543 kbps                    
Presentation Graphics           English         20.642 kbps   

Video
ID : 1
ID in the original source medium : 4113 (0x1011)
Format : HEVC
Format/Info : High Efficiency Video Coding
Format profile : Main [email protected]@High
HDR format : SMPTE ST 2094 App 4, Version 1, HDR10+ Profile A compatible
Codec ID : V_MPEGH/ISO/HEVC
Duration : 1 h 43 min
Bit rate : 53.8 Mb/s
Width : 3 840 pixels
Height : 2 160 pixels
Display aspect ratio : 16:9
Frame rate mode : Constant
Frame rate : 23.976 (24000/1001) FPS
Color space : YUV
Chroma subsampling : 4:2:0 (Type 2)
Bit depth : 10 bits
Bits/(Pixel*Frame) : 0.271
Stream size : 38.7 GiB (91%)
Title : The.Woman.2011.2160p.BluRay.REMUX.HEVC.DTS-HD.MA.5.1-FGT
Language : English
Default : No
Forced : No
Color range : Limited
Color primaries : BT.2020
Transfer characteristics : PQ
Matrix coefficients : BT.2020 non-constant
Mastering display color primaries : Display P3
Mastering display luminance : min: 0.0050 cd/m2, max: 1000 cd/m2
Maximum Content Light Level : 1000 cd/m2
Maximum Frame-Average Light Level : 400 cd/m2
Original source medium : Blu-ray

Audio #1
ID : 2
ID in the original source medium : 4353 (0x1101)
Format : DTS XLL
Format/Info : Digital Theater Systems
Commercial name : DTS-HD Master Audio
Codec ID : A_DTS
Duration : 1 h 43 min
Bit rate mode : Variable
Bit rate : 2 328 kb/s
Channel(s) : 6 channels
Channel layout : C L R Ls Rs LFE
Sampling rate : 48.0 kHz
Frame rate : 93.750 FPS (512 SPF)
Bit depth : 16 bits
Compression mode : Lossless
Stream size : 1.68 GiB (4%)
Title : The.Woman.2011.2160p.BluRay.REMUX.HEVC.DTS-HD.MA.5.1-FGT
Language : English
Default : Yes
Forced : No
Original source medium : Blu-ray

Audio #2
ID : 3
ID in the original source medium : 4352 (0x1100)
Format : DTS XLL
Format/Info : Digital Theater Systems
Commercial name : DTS-HD Master Audio
Codec ID : A_DTS
Duration : 1 h 43 min
Bit rate mode : Variable
Bit rate : 2 695 kb/s
Channel(s) : 8 channels
Channel layout : C L R LFE Lb Rb Lss Rss
Sampling rate : 48.0 kHz
Frame rate : 93.750 FPS (512 SPF)
Bit depth : 16 bits
Compression mode : Lossless
Stream size : 1.94 GiB (5%)
Title : The.Woman.2011.2160p.BluRay.REMUX.HEVC.DTS-HD.MA.5.1-FGT
Language : German
Default : No
Forced : No
Original source medium : Blu-ray

Audio #3
ID : 4
ID in the original source medium : 4356 (0x1104)
Format : AC-3
Format/Info : Audio Coding 3
Commercial name : Dolby Digital
Codec ID : A_AC3
Duration : 1 h 43 min
Bit rate mode : Constant
Bit rate : 224 kb/s
Channel(s) : 2 channels
Channel layout : L R
Sampling rate : 48.0 kHz
Frame rate : 31.250 FPS (1536 SPF)
Compression mode : Lossy
Stream size : 165 MiB (0%)
Title : The.Woman.2011.2160p.BluRay.REMUX.HEVC.DTS-HD.MA.5.1-FGT
Language : English
Service kind : Complete Main
Default : No
Forced : No
Original source medium : Blu-ray

Text #1
ID : 5
Format : UTF-8
Codec ID : S_TEXT/UTF8
Codec ID/Info : UTF-8 Plain Text
Duration : 1 h 29 min
Bit rate : 33 b/s
Count of elements : 789
Stream size : 22.0 KiB (0%)
Title : English-SRT
Language : English
Default : Yes
Forced : No

Text #2
ID : 6
ID in the original source medium : 4768 (0x12A0)
Format : PGS
Muxing mode : zlib
Codec ID : S_HDMV/PGS
Codec ID/Info : Picture based subtitle format used on BDs/HD-DVDs
Duration : 2 s 315 ms
Bit rate : 30.6 kb/s
Count of elements : 2
Stream size : 8.65 KiB (0%)
Title : German-PGS
Language : German
Default : No
Forced : No
Original source medium : Blu-ray

Text #3
ID : 7
ID in the original source medium : 4769 (0x12A1)
Format : PGS
Muxing mode : zlib
Codec ID : S_HDMV/PGS
Codec ID/Info : Picture based subtitle format used on BDs/HD-DVDs
Duration : 1 h 29 min
Bit rate : 27.1 kb/s
Count of elements : 1585
Stream size : 17.4 MiB (0%)
Title : German-PGS
Language : German
Default : No
Forced : No
Original source medium : Blu-ray

Text #4
ID : 8
ID in the original source medium : 4770 (0x12A2)
Format : PGS
Muxing mode : zlib
Codec ID : S_HDMV/PGS
Codec ID/Info : Picture based subtitle format used on BDs/HD-DVDs
Duration : 1 h 29 min
Bit rate : 23.8 kb/s
Count of elements : 1578
Stream size : 15.2 MiB (0%)
Title : English-PGS
Language : English
Default : No
Forced : No
Original source medium : Blu-ray

Menu
00:00:00.000 : en:Chapter 01
00:05:01.926 : en:Chapter 02
00:09:35.116 : en:Chapter 03
00:17:10.154 : en:Chapter 04
00:24:10.365 : en:Chapter 05
00:31:39.314 : en:Chapter 06
00:36:37.695 : en:Chapter 07
00:42:40.558 : en:Chapter 08
00:48:27.779 : en:Chapter 09
00:55:48.219 : en:Chapter 10
01:02:14.439 : en:Chapter 11
01:09:31.167 : en:Chapter 12
01:17:59.800 : en:Chapter 13
01:23:24.374 : en:Chapter 14
01:30:58.870 : en:Chapter 15
01:36:58.395 : en:Chapter 16

本帖子中包含更多资源

您需要 登录 才可以下载或查看,没有帐号?立即注册

x
回复

使用道具 举报

0

主题

695

帖子

5502

积分

VIP永久

Rank: 12Rank: 12Rank: 12

积分
5502
发表于 2020-9-26 11:31:15 | 显示全部楼层
感谢楼主分享!!!
回复

使用道具 举报

0

主题

737

帖子

3206

积分

论坛元老

Rank: 8Rank: 8

积分
3206
发表于 2020-9-27 21:15:09 | 显示全部楼层
感谢楼主分享
回复

使用道具 举报

0

主题

314

帖子

1439

积分

金牌会员

Rank: 6Rank: 6

积分
1439
发表于 2020-9-28 11:22:33 | 显示全部楼层
thank you very much
回复

使用道具 举报

0

主题

477

帖子

6049

积分

论坛元老

Rank: 8Rank: 8

积分
6049
发表于 2020-9-30 00:12:46 | 显示全部楼层
感谢楼主分享!!!
回复

使用道具 举报

0

主题

183

帖子

1478

积分

金牌会员

Rank: 6Rank: 6

积分
1478
发表于 2020-9-30 16:54:31 | 显示全部楼层
这电影我收藏了!谢谢楼主!
回复

使用道具 举报

0

主题

73

帖子

377

积分

中级会员

Rank: 3Rank: 3

积分
377
发表于 2020-10-4 11:21:51 | 显示全部楼层
感谢分享 收下了 谢谢
回复

使用道具 举报

0

主题

46

帖子

175

积分

注册会员

Rank: 2

积分
175
发表于 2020-10-4 12:11:34 | 显示全部楼层
谢谢分享收下了
回复

使用道具 举报

0

主题

679

帖子

5181

积分

论坛元老

Rank: 8Rank: 8

积分
5181
发表于 2020-10-6 04:53:29 | 显示全部楼层
感谢楼主分享!
回复

使用道具 举报

0

主题

6

帖子

310

积分

中级会员

Rank: 3Rank: 3

积分
310
发表于 2020-10-11 14:20:47 | 显示全部楼层
感谢楼主分享!
回复

使用道具 举报

您需要登录后才可以回帖 登录 | 立即注册

本版积分规则

QQ|Archiver|手机版|小黑屋|原盘天堂 盘盘多 点击这里给我发消息

GMT+8, 2020-10-27 08:50 , Processed in 0.075258 second(s), 24 queries .

Powered by Discuz! X3.4

Copyright © 2001-2020, Tencent Cloud.

快速回复 返回顶部 返回列表