请选择 进入手机版 | 继续访问电脑版
本站原来Q群已取消,请原Q群会员和其他未入群会员加原盘天堂新官方QQ群713428235【盘盘多】,验证信息填写您在论坛的会员名,不填会员名的无法入群哈,进群后修改您的群名片名字为您在论坛的会员名,请务必修改,否则群成员多了不知道您是哪个会员,无法为您发送高速链接!

原盘天堂

 找回密码
 立即注册
查看: 152|回复: 6

4k蓝光原盘bdmv 爆裂鼓手 英语原版 whiplash.2014.2160p.bluray.hevc.truehd.7.1.atmos.7.1[48.55 GB]

[复制链接]

5448

主题

5975

帖子

129万

积分

管理员

Rank: 18Rank: 18Rank: 18Rank: 18Rank: 18

积分
1295117
发表于 2020-9-24 09:50:11 | 显示全部楼层 |阅读模式








爆裂鼓手 Whiplash (2014)

导演: 达米恩·查泽雷
编剧: 达米恩·查泽雷
主演: 迈尔斯·特勒 / J·K·西蒙斯 / 保罗·雷瑟 / 梅莉莎·班诺伊 / 奥斯汀·斯托维尔 / 更多...
类型: 剧情 / 音乐
制片国家/地区: 美国
语言: 英语
上映日期: 2014-01-16(圣丹斯电影节) / 2014-10-10(美国)
片长: 107分钟
又名: 鼓动真我(港) / 进击的鼓手(台) / 鼓动人生(台) / 鞭打 / The Whiplash Drummer

豆瓣评分
8.7
419260人评价
5星47.2%
4星40.5%
3星10.9%
2星1.0%
1星0.4%
好于 92% 音乐片
好于 94% 剧情片

剧情简介 · · · · · ·
  19岁少年安德鲁(迈尔斯·特勒 Miles Teller 饰)成长在单亲家庭,一心想成为顶级爵士乐鼓手。某晚他在学校练习时被魔鬼导师弗莱彻(J·K·西蒙斯 J.K. Simmons 饰)相中,进入正规乐队,同时也开始为追求完美付出代价。安德鲁越是刻苦练习,与外部世界越是隔膜。唯一理解他的是弗莱彻,但后者的暴躁与喜怒无常扭曲了这段师生关系,更让安德鲁耳濡目染,连带自身的性格亦发生变化。最后当安德鲁终于登上纽约音乐厅的舞台,他才惊恐的发现原来弗莱彻一直等着将他打入尘埃......
  《爆裂鼓手》讲述一名少年在严师督教下,以非常规手段挑战自己的极限、追逐爵士乐鼓手梦的热血故事。主人公热爱打鼓,但过度的投入让他失去对音乐的初衷,进而演变为生命的负荷以及师徒间近乎疯魔的对决。电影不只有音乐人的苦痛,更让人看到传统励志背后的残酷真相。 《爆裂鼓手》获得第30届圣丹斯电影节最高荣誉评审团奖。

爆裂鼓手 Whiplash 获奖情况
第87届奥斯卡金像奖  (2015)
最佳影片(提名) 杰森·布伦 / 戴维·兰开斯特 / 海伦·埃斯特布鲁克
最佳男配角 J·K·西蒙斯
最佳改编剧本(提名) 达米恩·查泽雷
最佳剪辑 汤姆·克罗斯
最佳混音 克雷格·曼恩 / 本·威尔金斯 / 托马斯·柯利
第72届金球奖  (2015)
电影类 最佳男配角 J·K·西蒙斯
第39届日本电影学院奖  (2016)
最佳外语片(提名)
第30届圣丹斯电影节  (2014)
评审团大奖 剧情片 达米恩·查泽雷
观众奖 剧情片 达米恩·查泽雷
第21届美国演员工会奖  (2015)
电影奖 最佳男配角 J·K·西蒙斯
第67届美国编剧工会奖  (2015)
电影奖 最佳原创剧本(提名) 达米恩·查泽雷
第80届纽约影评人协会奖  (2014)
最佳男配角 J·K·西蒙斯
第30届美国独立精神奖  (2015)
最佳影片(提名)
最佳导演(提名) 达米恩·查泽雷
最佳男配角 J·K·西蒙斯
最佳剪辑 汤姆·克罗斯
第24届哥谭独立电影奖  (2014)
最佳男演员(提名) 迈尔斯·特勒
第15届美国电影学会奖  (2014)
年度佳片
第13届华盛顿影评人协会奖  (2014)
最佳影片(提名)
最佳导演(提名) 达米恩·查泽雷
最佳男配角 J·K·西蒙斯
最佳原创剧本(提名) 达米恩·查泽雷
最佳剪辑(提名) 汤姆·克罗斯
第35届波士顿影评人协会奖  (2014)
最佳男配角 J·K·西蒙斯
第40届洛杉矶影评人协会奖  (2014)
最佳男配角 J·K·西蒙斯
第27届芝加哥影评人协会奖  (2014)
最佳影片(提名)
最佳男配角 J·K·西蒙斯
最佳原创剧本(提名) 达米恩·查泽雷
最佳剪辑 汤姆·克罗斯
最具潜力导演 达米恩·查泽雷
第18届美国在线影评人协会奖  (2014)
最佳影片(提名)
最佳男配角(提名) J·K·西蒙斯
最佳原创剧本(提名) 达米恩·查泽雷
最佳剪辑(提名) 汤姆·克罗斯
第5届豆瓣电影鑫像奖  (2015)
鑫豆单元 最佳影片(外语)(提名)

DISC INFO:

Disc Title:     Whiplash.2014.2160p.BluRay.HEVC.TrueHD.7.1.Atmos.7.1-EATDIK
Disc Size:      52,116,439,226 bytes
Protection:     AACS2
Extras:         Ultra HD, BD-Java
BDInfo:         0.7.5.9 (compatible layout created by DVDFab 11.1.0.7)

PLAYLIST REPORT:

Name:                   00001.MPLS  
Length:                 1:46:57.410 (h:m:s.ms)
Size:                   51,794,921,472 bytes
Total Bitrate:          64.57 Mbps

VIDEO:

Codec                   Bitrate             Description   
-----                   -------             -----------   
MPEG-H HEVC Video       51832 kbps          2160p / 23.976 fps / 16:9 / Main 10 @ Level 5.1 @ High / 4:2:0 / 10 bits / 4000nits / HDR10 / BT.2020

AUDIO:

Codec                           Language        Bitrate         Description   
-----                           --------        -------         -----------   
Dolby TrueHD/Atmos Audio        English         3672 kbps       7.1+11 objects / 48 kHz / 3032 kbps / 16-bit (AC3 Core: 5.1 / 48 kHz / 640 kbps)
DTS-HD Master Audio             English         2185 kbps       5.1 / 48 kHz / 2185 kbps / 16-bit (DTS Core: 5.1 / 48 kHz / 1509 kbps / 16-bit)
Dolby Digital Audio             English         640 kbps        5.1 / 48 kHz / 640 kbps
Dolby Digital Audio             English         640 kbps        5.1 / 48 kHz / 640 kbps
Dolby Digital Audio             French          640 kbps        5.1 / 48 kHz / 640 kbps
Dolby Digital Audio             German          640 kbps        5.1 / 48 kHz / 640 kbps

SUBTITLES:

Codec                           Language        Bitrate         Description   
-----                           --------        -------         -----------   
Presentation Graphics           English         25.654 kbps                    
Presentation Graphics           English         22.863 kbps                    
Presentation Graphics           English         25.637 kbps                    
Presentation Graphics           English         22.865 kbps                    
Presentation Graphics           French          17.165 kbps                    
Presentation Graphics           German          23.415 kbps                    
Presentation Graphics           Spanish         20.777 kbps                    
Presentation Graphics           Turkish         22.414 kbps   

Video
ID : 1
ID in the original source medium : 4113 (0x1011)
Format : HEVC
Format/Info : High Efficiency Video Coding
Format profile : Main [email protected]@High
HDR format : SMPTE ST 2086, HDR10 compatible
Codec ID : V_MPEGH/ISO/HEVC
Duration : 1 h 46 min
Bit rate : 51.8 Mb/s
Width : 3 840 pixels
Height : 2 160 pixels
Display aspect ratio : 16:9
Frame rate mode : Constant
Frame rate : 23.976 (24000/1001) FPS
Color space : YUV
Chroma subsampling : 4:2:0 (Type 2)
Bit depth : 10 bits
Bits/(Pixel*Frame) : 0.261
Stream size : 38.7 GiB (83%)
Title : Whiplash.2014.2160p.BluRay.REMUX.HEVC.DTS-HD.MA.TrueHD.7.1.Atmos-FGT
Language : English
Default : No
Forced : No
Color range : Limited
Color primaries : BT.2020
Transfer characteristics : PQ
Matrix coefficients : BT.2020 non-constant
Mastering display color primaries : Display P3
Mastering display luminance : min: 0.0050 cd/m2, max: 4000 cd/m2
Maximum Content Light Level : 1000 cd/m2
Maximum Frame-Average Light Level : 82 cd/m2
Original source medium : Blu-ray

Audio #1
ID : 2
ID in the original source medium : 4352 (0x1100)
Format : MLP FBA 16-ch
Format/Info : Meridian Lossless Packing FBA with 16-channel presentation
Commercial name : Dolby TrueHD with Dolby Atmos
Codec ID : A_TRUEHD
Duration : 1 h 46 min
Bit rate mode : Variable
Bit rate : 3 032 kb/s
Maximum bit rate : 5 253 kb/s
Channel(s) : 8 channels
Channel layout : L R C LFE Ls Rs Lb Rb
Sampling rate : 48.0 kHz
Frame rate : 1 200.000 FPS (40 SPF)
Compression mode : Lossless
Stream size : 2.26 GiB (5%)
Title : Whiplash.2014.2160p.BluRay.REMUX.HEVC.DTS-HD.MA.TrueHD.7.1.Atmos-FGT
Language : English
Default : Yes
Forced : No
Original source medium : Blu-ray
Number of dynamic objects : 11
Bed channel count : 1 channel
Bed channel configuration : LFE

Audio #2
ID : 3
Format : DTS XLL
Format/Info : Digital Theater Systems
Commercial name : DTS-HD Master Audio
Codec ID : A_DTS
Duration : 1 h 46 min
Bit rate mode : Variable
Bit rate : 4 226 kb/s
Channel(s) : 8 channels
Channel layout : C L R LFE Lb Rb Lss Rss
Sampling rate : 48.0 kHz
Frame rate : 93.750 FPS (512 SPF)
Bit depth : 24 bits
Compression mode : Lossless
Stream size : 3.16 GiB (7%)
Title : Whiplash.2014.2160p.BluRay.REMUX.HEVC.DTS-HD.MA.TrueHD.7.1.Atmos-FGT
Language : English
Default : No
Forced : No

Audio #3
ID : 4
ID in the original source medium : 4352 (0x1100)
Format : AC-3
Format/Info : Audio Coding 3
Commercial name : Dolby Digital
Codec ID : A_AC3
Duration : 1 h 46 min
Bit rate mode : Constant
Bit rate : 640 kb/s
Channel(s) : 6 channels
Channel layout : L R C LFE Ls Rs
Sampling rate : 48.0 kHz
Frame rate : 31.250 FPS (1536 SPF)
Compression mode : Lossy
Stream size : 490 MiB (1%)
Title : Whiplash.2014.2160p.BluRay.REMUX.HEVC.DTS-HD.MA.TrueHD.7.1.Atmos-FGT
Language : English
Service kind : Complete Main
Default : No
Forced : No
Original source medium : Blu-ray

Audio #4
ID : 5
ID in the original source medium : 4354 (0x1102)
Format : AC-3
Format/Info : Audio Coding 3
Commercial name : Dolby Digital
Codec ID : A_AC3
Duration : 1 h 46 min
Bit rate mode : Constant
Bit rate : 640 kb/s
Channel(s) : 6 channels
Channel layout : L R C LFE Ls Rs
Sampling rate : 48.0 kHz
Frame rate : 31.250 FPS (1536 SPF)
Compression mode : Lossy
Stream size : 490 MiB (1%)
Title : Whiplash.2014.2160p.BluRay.REMUX.HEVC.DTS-HD.MA.TrueHD.7.1.Atmos-FGT
Language : English
Service kind : Complete Main
Default : No
Forced : No
Original source medium : Blu-ray

Audio #5
ID : 6
ID in the original source medium : 4355 (0x1103)
Format : AC-3
Format/Info : Audio Coding 3
Commercial name : Dolby Digital
Codec ID : A_AC3
Duration : 1 h 46 min
Bit rate mode : Constant
Bit rate : 640 kb/s
Channel(s) : 6 channels
Channel layout : L R C LFE Ls Rs
Sampling rate : 48.0 kHz
Frame rate : 31.250 FPS (1536 SPF)
Compression mode : Lossy
Stream size : 490 MiB (1%)
Title : Whiplash.2014.2160p.BluRay.REMUX.HEVC.DTS-HD.MA.TrueHD.7.1.Atmos-FGT
Language : English
Service kind : Complete Main
Default : No
Forced : No
Original source medium : Blu-ray

Audio #6
ID : 7
ID in the original source medium : 4356 (0x1104)
Format : AC-3
Format/Info : Audio Coding 3
Commercial name : Dolby Digital
Codec ID : A_AC3
Duration : 1 h 46 min
Bit rate mode : Constant
Bit rate : 640 kb/s
Channel(s) : 6 channels
Channel layout : L R C LFE Ls Rs
Sampling rate : 48.0 kHz
Frame rate : 31.250 FPS (1536 SPF)
Compression mode : Lossy
Stream size : 490 MiB (1%)
Title : Whiplash.2014.2160p.BluRay.REMUX.HEVC.DTS-HD.MA.TrueHD.7.1.Atmos-FGT
Language : French
Service kind : Complete Main
Default : No
Forced : No
Original source medium : Blu-ray

Audio #7
ID : 8
ID in the original source medium : 4357 (0x1105)
Format : AC-3
Format/Info : Audio Coding 3
Commercial name : Dolby Digital
Codec ID : A_AC3
Duration : 1 h 46 min
Bit rate mode : Constant
Bit rate : 640 kb/s
Channel(s) : 6 channels
Channel layout : L R C LFE Ls Rs
Sampling rate : 48.0 kHz
Frame rate : 31.250 FPS (1536 SPF)
Compression mode : Lossy
Stream size : 490 MiB (1%)
Title : Whiplash.2014.2160p.BluRay.REMUX.HEVC.DTS-HD.MA.TrueHD.7.1.Atmos-FGT
Language : German
Service kind : Complete Main
Default : No
Forced : No
Original source medium : Blu-ray

Text #1
ID : 9
Format : UTF-8
Codec ID : S_TEXT/UTF8
Codec ID/Info : UTF-8 Plain Text
Duration : 1 h 35 min
Bit rate : 44 b/s
Count of elements : 889
Stream size : 30.9 KiB (0%)
Title : English-SRT
Language : English
Default : Yes
Forced : No

Text #2
ID : 10
ID in the original source medium : 4768 (0x12A0)
Format : PGS
Muxing mode : zlib
Codec ID : S_HDMV/PGS
Codec ID/Info : Picture based subtitle format used on BDs/HD-DVDs
Duration : 1 h 44 min
Bit rate : 26.3 kb/s
Count of elements : 2065
Stream size : 19.6 MiB (0%)
Title : English-SDH-PGS
Language : English
Default : No
Forced : No
Original source medium : Blu-ray

Text #3
ID : 11
ID in the original source medium : 4769 (0x12A1)
Format : PGS
Muxing mode : zlib
Codec ID : S_HDMV/PGS
Codec ID/Info : Picture based subtitle format used on BDs/HD-DVDs
Duration : 1 h 35 min
Bit rate : 25.7 kb/s
Count of elements : 1794
Stream size : 17.5 MiB (0%)
Title : English-PGS
Language : English
Default : No
Forced : No
Original source medium : Blu-ray

Text #4
ID : 12
ID in the original source medium : 4770 (0x12A2)
Format : PGS
Muxing mode : zlib
Codec ID : S_HDMV/PGS
Codec ID/Info : Picture based subtitle format used on BDs/HD-DVDs
Duration : 1 h 44 min
Bit rate : 26.3 kb/s
Count of elements : 2065
Stream size : 19.6 MiB (0%)
Title : English-SDH-PGS
Language : English
Default : No
Forced : No
Original source medium : Blu-ray

Text #5
ID : 13
ID in the original source medium : 4771 (0x12A3)
Format : PGS
Muxing mode : zlib
Codec ID : S_HDMV/PGS
Codec ID/Info : Picture based subtitle format used on BDs/HD-DVDs
Duration : 1 h 35 min
Bit rate : 25.7 kb/s
Count of elements : 1790
Stream size : 17.5 MiB (0%)
Title : English-PGS
Language : English
Default : No
Forced : No
Original source medium : Blu-ray

Text #6
ID : 14
ID in the original source medium : 4772 (0x12A4)
Format : PGS
Muxing mode : zlib
Codec ID : S_HDMV/PGS
Codec ID/Info : Picture based subtitle format used on BDs/HD-DVDs
Duration : 1 h 44 min
Bit rate : 17.6 kb/s
Count of elements : 1728
Stream size : 13.1 MiB (0%)
Title : French-PGS
Language : French
Default : No
Forced : No
Original source medium : Blu-ray

Text #7
ID : 15
ID in the original source medium : 4772 (0x12A4)
Format : PGS
Muxing mode : zlib
Codec ID : S_HDMV/PGS
Codec ID/Info : Picture based subtitle format used on BDs/HD-DVDs
Duration : 1 h 42 min
Bit rate : 222 b/s
Count of elements : 20
Stream size : 167 KiB (0%)
Title : French-FORCED-PGS
Language : French
Default : No
Forced : No
Original source medium : Blu-ray

Text #8
ID : 16
ID in the original source medium : 4773 (0x12A5)
Format : PGS
Muxing mode : zlib
Codec ID : S_HDMV/PGS
Codec ID/Info : Picture based subtitle format used on BDs/HD-DVDs
Duration : 1 h 35 min
Bit rate : 26.3 kb/s
Count of elements : 1714
Stream size : 17.9 MiB (0%)
Title : German-PGS
Language : German
Default : No
Forced : No
Original source medium : Blu-ray

Text #9
ID : 17
ID in the original source medium : 4773 (0x12A5)
Format : PGS
Muxing mode : zlib
Codec ID : S_HDMV/PGS
Codec ID/Info : Picture based subtitle format used on BDs/HD-DVDs
Duration : 1 h 10 min
Bit rate : 279 b/s
Count of elements : 14
Stream size : 144 KiB (0%)
Title : German-FORCED-PGS
Language : German
Default : No
Forced : No
Original source medium : Blu-ray

Text #10
ID : 18
ID in the original source medium : 4774 (0x12A6)
Format : PGS
Muxing mode : zlib
Codec ID : S_HDMV/PGS
Codec ID/Info : Picture based subtitle format used on BDs/HD-DVDs
Duration : 1 h 45 min
Bit rate : 21.0 kb/s
Count of elements : 2002
Stream size : 15.9 MiB (0%)
Title : Spanish-PGS
Language : Spanish
Default : No
Forced : No
Original source medium : Blu-ray

Text #11
ID : 19
ID in the original source medium : 4775 (0x12A7)
Format : PGS
Muxing mode : zlib
Codec ID : S_HDMV/PGS
Codec ID/Info : Picture based subtitle format used on BDs/HD-DVDs
Duration : 1 h 44 min
Bit rate : 23.0 kb/s
Count of elements : 1824
Stream size : 17.1 MiB (0%)
Title : Turkish-PGS
Language : Turkish
Default : No
Forced : No
Original source medium : Blu-ray

Menu
00:00:00.000 : en:Chapter 01
00:07:02.922 : en:Chapter 02
00:14:45.551 : en:Chapter 03
00:24:37.476 : en:Chapter 04
00:30:17.190 : en:Chapter 05
00:35:54.944 : en:Chapter 06
00:43:42.244 : en:Chapter 07
00:47:06.406 : en:Chapter 08
00:53:23.408 : en:Chapter 09
01:02:48.598 : en:Chapter 10
01:10:41.320 : en:Chapter 11
01:14:15.033 : en:Chapter 12
01:17:59.883 : en:Chapter 13
01:23:17.075 : en:Chapter 14
01:25:39.008 : en:Chapter 15
01:32:07.355 : en:Chapter 16

本帖子中包含更多资源

您需要 登录 才可以下载或查看,没有帐号?立即注册

x
回复

使用道具 举报

0

主题

695

帖子

5502

积分

VIP永久

Rank: 12Rank: 12Rank: 12

积分
5502
发表于 2020-9-24 13:18:14 | 显示全部楼层
感谢楼主分享!!!
回复

使用道具 举报

0

主题

737

帖子

3206

积分

论坛元老

Rank: 8Rank: 8

积分
3206
发表于 2020-9-25 21:28:59 | 显示全部楼层
感谢楼主分享高清影片
回复

使用道具 举报

0

主题

182

帖子

1466

积分

金牌会员

Rank: 6Rank: 6

积分
1466
发表于 2020-9-26 08:55:10 | 显示全部楼层
楼主太厉害了!这个资源都能找到,辛苦了!
回复

使用道具 举报

0

主题

314

帖子

1439

积分

金牌会员

Rank: 6Rank: 6

积分
1439
发表于 2020-9-29 11:29:01 | 显示全部楼层
thank you very much
回复

使用道具 举报

0

主题

73

帖子

377

积分

中级会员

Rank: 3Rank: 3

积分
377
发表于 2020-10-4 08:46:04 | 显示全部楼层
名副其实的片子
回复

使用道具 举报

0

主题

91

帖子

475

积分

中级会员

Rank: 3Rank: 3

积分
475
发表于 前天 09:54 | 显示全部楼层
thank you very much
回复

使用道具 举报

您需要登录后才可以回帖 登录 | 立即注册

本版积分规则

QQ|Archiver|手机版|小黑屋|原盘天堂 盘盘多 点击这里给我发消息

GMT+8, 2020-10-27 07:43 , Processed in 0.071451 second(s), 24 queries .

Powered by Discuz! X3.4

Copyright © 2001-2020, Tencent Cloud.

快速回复 返回顶部 返回列表