请选择 进入手机版 | 继续访问电脑版
本站原来Q群已取消,请原Q群会员和其他未入群会员加原盘天堂新官方QQ群713428235【盘盘多】,验证信息填写您在论坛的会员名,不填会员名的无法入群哈,进群后修改您的群名片名字为您在论坛的会员名,请务必修改,否则群成员多了不知道您是哪个会员,无法为您发送高速链接!

原盘天堂

 找回密码
 立即注册
查看: 172|回复: 4

2d蓝光原盘bdmv 贾斯珀购物中心 英语原版 jasper.mall.2020.1080p.bluray.avc.dts-hd.ma.5.1[22.93 GB]

[复制链接]

5448

主题

5975

帖子

129万

积分

管理员

Rank: 18Rank: 18Rank: 18Rank: 18Rank: 18

积分
1295140
发表于 2020-9-22 11:17:54 | 显示全部楼层 |阅读模式






贾斯珀购物中心 Jasper Mall (2020)

导演: Bradford Thomason / 布雷特·惠特科姆
类型: 纪录片
制片国家/地区: 美国
语言: 英语
上映日期: 2020-01-24(诗兰丹斯电影节) / 2020-06-23(美国)
片长: 85分钟

剧情简介 · · · · · ·
  A year in the life of a dying shopping mall.

DISC INFO:

Disc Title:     Jasper.Mall.2020.1080p.BluRay.AVC.DTS-HD.MA.5.1-FGT
Disc Size:      24,617,772,896 bytes
Protection:     AACS
BDInfo:         0.7.5.9 (compatible layout created by DVDFab 11.0.8.9)

PLAYLIST REPORT:

Name:                   00000.MPLS  
Length:                 1:24:06.624 (h:m:s.ms)
Size:                   23,871,442,944 bytes
Total Bitrate:          37.84 Mbps

VIDEO:

Codec                   Bitrate             Description   
-----                   -------             -----------   
MPEG-4 AVC Video        32609 kbps          1080p / 23.976 fps / 16:9 / High Profile 4.1

AUDIO:

Codec                           Language        Bitrate         Description   
-----                           --------        -------         -----------   
DTS-HD Master Audio             English         3314 kbps       5.1 / 48 kHz / 3314 kbps / 24-bit (DTS Core: 5.1 / 48 kHz / 1509 kbps / 24-bit)

SUBTITLES:

Codec                           Language        Bitrate         Description   
-----                           --------        -------         -----------   
Presentation Graphics           English         38.53 kbps   

Video
ID : 1
ID in the original source medium : 4113 (0x1011)
Format : AVC
Format/Info : Advanced Video Codec
Format profile : [email protected]
Format settings : CABAC / 4 Ref Frames
Format settings, CABAC : Yes
Format settings, Reference frames : 4 frames
Codec ID : V_MPEG4/ISO/AVC
Duration : 1 h 24 min
Bit rate mode : Constant
Bit rate : 32.6 Mb/s
Width : 1 920 pixels
Height : 1 080 pixels
Display aspect ratio : 16:9
Frame rate mode : Constant
Frame rate : 23.976 (24000/1001) FPS
Color space : YUV
Chroma subsampling : 4:2:0
Bit depth : 8 bits
Scan type : Progressive
Bits/(Pixel*Frame) : 0.656
Stream size : 18.7 GiB (91%)
Title : Jasper.Mall.2020.1080p.BluRay.REMUX.AVC.DTS-HD.MA.5.1-FGT
Language : English
Default : No
Forced : No
Color range : Limited
Color primaries : BT.709
Transfer characteristics : BT.709
Matrix coefficients : BT.709
Original source medium : Blu-ray

Audio
ID : 2
ID in the original source medium : 4352 (0x1100)
Format : DTS XLL
Format/Info : Digital Theater Systems
Commercial name : DTS-HD Master Audio
Codec ID : A_DTS
Duration : 1 h 24 min
Bit rate mode : Variable
Bit rate : 3 314 kb/s
Channel(s) : 6 channels
Channel layout : C L R Ls Rs LFE
Sampling rate : 48.0 kHz
Frame rate : 93.750 FPS (512 SPF)
Bit depth : 24 bits
Compression mode : Lossless
Stream size : 1.95 GiB (9%)
Title : Jasper.Mall.2020.1080p.BluRay.REMUX.AVC.DTS-HD.MA.5.1-FGT
Language : English
Default : Yes
Forced : No
Original source medium : Blu-ray

Text #1
ID : 3
Format : UTF-8
Codec ID : S_TEXT/UTF8
Codec ID/Info : UTF-8 Plain Text
Duration : 1 h 23 min
Bit rate : 65 b/s
Count of elements : 1155
Stream size : 40.3 KiB (0%)
Title : English-SRT
Language : English
Default : Yes
Forced : No

Text #2
ID : 4
ID in the original source medium : 4608 (0x1200)
Format : PGS
Muxing mode : zlib
Codec ID : S_HDMV/PGS
Codec ID/Info : Picture based subtitle format used on BDs/HD-DVDs
Duration : 1 h 23 min
Bit rate : 38.7 kb/s
Count of elements : 2418
Stream size : 23.2 MiB (0%)
Title : English-PGS
Language : English
Default : No
Forced : No
Original source medium : Blu-ray

Menu
00:00:00.000 : en:Chapter 01
00:11:09.794 : en:Chapter 02
00:18:08.545 : en:Chapter 03
00:29:52.582 : en:Chapter 04
00:38:39.775 : en:Chapter 05
00:45:35.315 : en:Chapter 06
00:53:46.389 : en:Chapter 07
01:06:05.878 : en:Chapter 08
01:22:05.211 : en:Chapter 09

本帖子中包含更多资源

您需要 登录 才可以下载或查看,没有帐号?立即注册

x
回复

使用道具 举报

0

主题

737

帖子

3206

积分

论坛元老

Rank: 8Rank: 8

积分
3206
发表于 2020-9-22 20:49:16 | 显示全部楼层
感谢楼主分享高清影片
回复

使用道具 举报

0

主题

72

帖子

563

积分

高级会员

Rank: 4

积分
563
发表于 2020-9-23 09:02:25 | 显示全部楼层
是不是这购物中心出钱拍的宣传片呀
回复

使用道具 举报

0

主题

695

帖子

5502

积分

VIP永久

Rank: 12Rank: 12Rank: 12

积分
5502
发表于 2020-9-23 09:47:42 | 显示全部楼层
感谢楼主分享!!!
回复

使用道具 举报

0

主题

180

帖子

963

积分

高级会员

Rank: 4

积分
963
发表于 2020-9-24 00:11:27 | 显示全部楼层
谢谢分享
回复

使用道具 举报

您需要登录后才可以回帖 登录 | 立即注册

本版积分规则

QQ|Archiver|手机版|小黑屋|原盘天堂 盘盘多 点击这里给我发消息

GMT+8, 2020-10-27 09:02 , Processed in 0.067687 second(s), 24 queries .

Powered by Discuz! X3.4

Copyright © 2001-2020, Tencent Cloud.

快速回复 返回顶部 返回列表