请选择 进入手机版 | 继续访问电脑版
本站原来Q群已取消,请原Q群会员和其他未入群会员加原盘天堂新官方QQ群713428235【盘盘多】,验证信息填写您在论坛的会员名,不填会员名的无法入群哈,进群后修改您的群名片名字为您在论坛的会员名,请务必修改,否则群成员多了不知道您是哪个会员,无法为您发送高速链接!

原盘天堂

 找回密码
 立即注册
查看: 117|回复: 7

2d蓝光原盘bdmv 染血黑钱 英语原版 blood.and.money.2020.1080p.bluray.avc.dts-hd.ma.5.1[22.8 GB]

[复制链接]

5448

主题

5975

帖子

129万

积分

管理员

Rank: 18Rank: 18Rank: 18Rank: 18Rank: 18

积分
1295117
发表于 2020-9-22 10:50:59 | 显示全部楼层 |阅读模式








染血黑钱 Blood and Money (2020)

导演: John Barr
编剧: John Barr / 迈克尔·麦克格雷
主演: 汤姆·贝伦杰 / 克里斯汀·哈格 / 保罗·本-维克托 / Gary Tanguay / Caroline Portu / 更多...
类型: 惊悚
制片国家/地区: 美国
语言: 英语
上映日期: 2020-05-15(美国)
片长: 89分钟
又名: Allagash

豆瓣评分
5.1
248人评价
5星2.3%
4星8.4%
3星43.7%
2星35.3%
1星10.2%

剧情简介 · · · · · ·
  电影描述的是在缅因州北部有一位退休的海军陆战队(Berenger)狩猎发现一名死去的妇女和大量金钱。当他遇到一群罪犯寻求金钱时,这个故事变得一发不可收拾。严峻而严峻的冬季景观构成了对意志和生存的考验。

DISC INFO:

Disc Title:     Blood.and.Money.2020.COMPLETE.BLURAY-RELiGiOUS
Disc Size:      24,484,942,096 bytes
Protection:     AACS
BDInfo:         0.7.5.9 (compatible layout created by DVDFab 11.0.8.9)

PLAYLIST REPORT:

Name:                   00000.MPLS  
Length:                 1:29:26.611 (h:m:s.ms)
Size:                   23,288,061,120 bytes
Total Bitrate:          34.72 Mbps

VIDEO:

Codec                   Bitrate             Description   
-----                   -------             -----------   
MPEG-4 AVC Video        28042 kbps          1080p / 23.976 fps / 16:9 / High Profile 4.1

AUDIO:

Codec                           Language        Bitrate         Description   
-----                           --------        -------         -----------   
DTS-HD Master Audio             English         2542 kbps       5.1 / 48 kHz / 2542 kbps / 24-bit (DTS Core: 5.1 / 48 kHz / 1509 kbps / 24-bit)
LPCM Audio                      English         2304 kbps       2.0 / 48 kHz / 2304 kbps / 24-bit

SUBTITLES:

Codec                           Language        Bitrate         Description   
-----                           --------        -------         -----------   
Presentation Graphics           English         29.401 kbps   

Video
ID : 1
ID in the original source medium : 4113 (0x1011)
Format : AVC
Format/Info : Advanced Video Codec
Format profile : [email protected]
Format settings : CABAC / 4 Ref Frames
Format settings, CABAC : Yes
Format settings, Reference frames : 4 frames
Format settings, GOP : M=3, N=12
Codec ID : V_MPEG4/ISO/AVC
Duration : 1 h 29 min
Bit rate mode : Variable
Bit rate : 28.0 Mb/s
Maximum bit rate : 33.8 Mb/s
Width : 1 920 pixels
Height : 1 080 pixels
Display aspect ratio : 16:9
Frame rate mode : Constant
Frame rate : 23.976 (24000/1001) FPS
Standard : NTSC
Color space : YUV
Chroma subsampling : 4:2:0
Bit depth : 8 bits
Scan type : Progressive
Bits/(Pixel*Frame) : 0.564
Stream size : 17.5 GiB (85%)
Title : Blood.and.Money.2020.1080p.BluRay.REMUX.AVC.DTS-HD.MA.5.1-FGT
Language : English
Default : No
Forced : No
Color range : Limited
Color primaries : BT.709
Transfer characteristics : BT.709
Matrix coefficients : BT.709
Original source medium : Blu-ray

Audio #1
ID : 2
ID in the original source medium : 4352 (0x1100)
Format : DTS XLL
Format/Info : Digital Theater Systems
Commercial name : DTS-HD Master Audio
Codec ID : A_DTS
Duration : 1 h 29 min
Bit rate mode : Variable
Bit rate : 2 542 kb/s
Channel(s) : 6 channels
Channel layout : C L R Ls Rs LFE
Sampling rate : 48.0 kHz
Frame rate : 93.750 FPS (512 SPF)
Bit depth : 24 bits
Compression mode : Lossless
Stream size : 1.59 GiB (8%)
Title : Blood.and.Money.2020.1080p.BluRay.REMUX.AVC.DTS-HD.MA.5.1-FGT
Language : English
Default : Yes
Forced : No
Original source medium : Blu-ray

Audio #2
ID : 3
ID in the original source medium : 4353 (0x1101)
Format : PCM
Format settings : Little / Signed
Codec ID : A_PCM/INT/LIT
Duration : 1 h 29 min
Bit rate mode : Constant
Bit rate : 2 304 kb/s
Channel(s) : 2 channels
Sampling rate : 48.0 kHz
Frame rate : 30.000 FPS (1600 SPF)
Bit depth : 24 bits
Stream size : 1.44 GiB (7%)
Title : Blood.and.Money.2020.1080p.BluRay.REMUX.AVC.DTS-HD.MA.5.1-FGT
Language : English
Default : No
Forced : No
Original source medium : Blu-ray

Text #1
ID : 4
Format : UTF-8
Codec ID : S_TEXT/UTF8
Codec ID/Info : UTF-8 Plain Text
Duration : 1 h 22 min
Bit rate : 22 b/s
Count of elements : 594
Stream size : 13.4 KiB (0%)
Title : English-SRT
Language : English
Default : Yes
Forced : No

Text #2
ID : 5
ID in the original source medium : 4608 (0x1200)
Format : PGS
Muxing mode : zlib
Codec ID : S_HDMV/PGS
Codec ID/Info : Picture based subtitle format used on BDs/HD-DVDs
Duration : 1 h 25 min
Bit rate : 30.6 kb/s
Count of elements : 897
Stream size : 18.8 MiB (0%)
Title : English-PGS
Language : English
Default : No
Forced : No
Original source medium : Blu-ray

Menu
00:00:00.000 : en:Chapter 01
00:09:23.604 : en:Chapter 02
00:15:47.613 : en:Chapter 03
00:24:03.066 : en:Chapter 04
00:31:47.739 : en:Chapter 05
00:43:25.477 : en:Chapter 06
00:51:20.619 : en:Chapter 07
01:00:42.889 : en:Chapter 08
01:08:41.492 : en:Chapter 09
01:11:40.963 : en:Chapter 10
01:17:56.963 : en:Chapter 11
01:26:29.726 : en:Chapter 12

本帖子中包含更多资源

您需要 登录 才可以下载或查看,没有帐号?立即注册

x
回复

使用道具 举报

0

主题

737

帖子

3206

积分

论坛元老

Rank: 8Rank: 8

积分
3206
发表于 2020-9-22 20:42:39 | 显示全部楼层
感谢楼主分享高清影片
回复

使用道具 举报

0

主题

452

帖子

2607

积分

金牌会员

Rank: 6Rank: 6

积分
2607
发表于 2020-9-22 22:11:59 | 显示全部楼层
感谢楼主分享
回复

使用道具 举报

0

主题

452

帖子

2607

积分

金牌会员

Rank: 6Rank: 6

积分
2607
发表于 2020-9-22 22:12:31 | 显示全部楼层
感谢楼主分享
回复

使用道具 举报

0

主题

695

帖子

5502

积分

VIP永久

Rank: 12Rank: 12Rank: 12

积分
5502
发表于 2020-9-23 09:47:24 | 显示全部楼层
感谢楼主分享!!!
回复

使用道具 举报

0

主题

203

帖子

1635

积分

金牌会员

Rank: 6Rank: 6

积分
1635
发表于 2020-9-23 14:40:18 | 显示全部楼层

感谢楼主分享!!!
回复

使用道具 举报

0

主题

19

帖子

149

积分

注册会员

Rank: 2

积分
149
发表于 2020-9-30 10:34:55 | 显示全部楼层
应该不错
回复

使用道具 举报

0

主题

46

帖子

175

积分

注册会员

Rank: 2

积分
175
发表于 2020-10-4 18:11:34 | 显示全部楼层
偶尔换换口味 文艺片 喜欢了
回复

使用道具 举报

您需要登录后才可以回帖 登录 | 立即注册

本版积分规则

QQ|Archiver|手机版|小黑屋|原盘天堂 盘盘多 点击这里给我发消息

GMT+8, 2020-10-27 08:03 , Processed in 0.066130 second(s), 24 queries .

Powered by Discuz! X3.4

Copyright © 2001-2020, Tencent Cloud.

快速回复 返回顶部 返回列表