请选择 进入手机版 | 继续访问电脑版
本站原来Q群已取消,请原Q群会员和其他未入群会员加原盘天堂新官方QQ群713428235【盘盘多】,验证信息填写您在论坛的会员名,不填会员名的无法入群哈,进群后修改您的群名片名字为您在论坛的会员名,请务必修改,否则群成员多了不知道您是哪个会员,无法为您发送高速链接!

原盘天堂

 找回密码
 立即注册
查看: 150|回复: 4

2d蓝光原盘bdmv 最后的清晰时刻 英语原版 last.moment.of.clarity.2020.1080p.bluray.avc.truehd.5.1[33.97 GB]

[复制链接]

5448

主题

5975

帖子

129万

积分

管理员

Rank: 18Rank: 18Rank: 18Rank: 18Rank: 18

积分
1295117
发表于 2020-9-22 10:11:37 | 显示全部楼层 |阅读模式








最后的清晰时刻 Last Moment of Clarity (2020)

导演: Colin Krisel / James Krisel
编剧: Colin Krisel / James Krisel
主演: 萨玛拉·维文 / 扎克·艾弗里 / 布莱恩·考克斯 / 卡莉·查肯 / 乌多·基尔 / 更多...
类型: 惊悚
制片国家/地区: 美国
语言: 英语
上映日期: 2020-05-19(美国)
片长: 90分钟
又名: 双面游戏(台) / 最后的清醒时刻

豆瓣评分
4.8
578人评价
5星3.1%
4星6.0%
3星31.9%
2星44.5%
1星14.5%

剧情简介 · · · · · ·
  萨玛拉·维文([辣手保姆])、卡莉·查肯(《黑客军团》)加盟黑色惊悚片[最后的清晰时刻](Last Moment of Clarity,暂译)。影片故事讲述山姆逃离到巴黎,以此忘记未婚妻格鲁吉亚(维文饰)被谋杀的事实,然而他却发现一个电影女星和格鲁吉亚非常相似,而他必须和好友凯特(查肯饰)找到格鲁吉亚的秘密。该片由詹姆斯·克里斯尔、科林·克里斯尔执导并操刀剧本。

DISC INFO:

Disc Title:     Last.Moment.of.Clarity.2020.COMPLETE.BLURAY-TAPAS
Disc Size:      36,475,575,665 bytes
Protection:     AACS
BDInfo:         0.7.5.9 (compatible layout created by DVDFab 11.0.8.9)

PLAYLIST REPORT:

Name:                   00000.MPLS  
Length:                 1:30:32.301 (h:m:s.ms)
Size:                   28,688,621,568 bytes
Total Bitrate:          42.25 Mbps

VIDEO:

Codec                   Bitrate             Description   
-----                   -------             -----------   
MPEG-4 AVC Video        30457 kbps          1080p / 23.976 fps / 16:9 / High Profile 4.1

AUDIO:

Codec                           Language        Bitrate         Description   
-----                           --------        -------         -----------   
Dolby TrueHD Audio              English         3582 kbps       5.1 / 48 kHz / 2942 kbps / 24-bit (AC3 Core: 5.1 / 48 kHz / 640 kbps)
Dolby TrueHD Audio              French          3828 kbps       5.1 / 48 kHz / 3188 kbps / 24-bit (AC3 Core: 5.1 / 48 kHz / 640 kbps)
Dolby Digital Audio             English         640 kbps        2.0 / 48 kHz / 640 kbps

SUBTITLES:

Codec                           Language        Bitrate         Description   
-----                           --------        -------         -----------   
Presentation Graphics           English         18.11 kbps                     
Presentation Graphics           French          22.125 kbps                    
Presentation Graphics           French          0.505 kbps   

Video
ID : 1
ID in the original source medium : 4113 (0x1011)
Format : AVC
Format/Info : Advanced Video Codec
Format profile : [email protected]
Format settings : CABAC / 4 Ref Frames
Format settings, CABAC : Yes
Format settings, Reference frames : 4 frames
Codec ID : V_MPEG4/ISO/AVC
Duration : 1 h 30 min
Bit rate mode : Variable
Bit rate : 30.5 Mb/s
Maximum bit rate : 35.0 Mb/s
Width : 1 920 pixels
Height : 1 080 pixels
Display aspect ratio : 16:9
Frame rate mode : Constant
Frame rate : 23.976 (24000/1001) FPS
Standard : NTSC
Color space : YUV
Chroma subsampling : 4:2:0
Bit depth : 8 bits
Scan type : Progressive
Bits/(Pixel*Frame) : 0.613
Stream size : 19.3 GiB (72%)
Title : Last.Moment.of.Clarity.2020.1080p.BluRay.REMUX.AVC.DTS-HD.MA.TrueHD.5.1-FGT
Language : English
Default : No
Forced : No
Color range : Limited
Color primaries : BT.709
Transfer characteristics : BT.709
Matrix coefficients : BT.709
Original source medium : Blu-ray

Audio #1
ID : 2
ID in the original source medium : 4352 (0x1100)
Format : MLP FBA
Format/Info : Meridian Lossless Packing FBA
Commercial name : Dolby TrueHD
Codec ID : A_TRUEHD
Duration : 1 h 30 min
Bit rate mode : Variable
Bit rate : 2 942 kb/s
Maximum bit rate : 5 079 kb/s
Channel(s) : 6 channels
Channel layout : L R C LFE Ls Rs
Sampling rate : 48.0 kHz
Frame rate : 1 200.000 FPS (40 SPF)
Compression mode : Lossless
Stream size : 1.86 GiB (7%)
Title : Last.Moment.of.Clarity.2020.1080p.BluRay.REMUX.AVC.DTS-HD.MA.TrueHD.5.1-FGT
Language : English
Default : Yes
Forced : No
Original source medium : Blu-ray

Audio #2
ID : 3
Format : DTS XLL
Format/Info : Digital Theater Systems
Commercial name : DTS-HD Master Audio
Codec ID : A_DTS
Duration : 1 h 30 min
Bit rate mode : Variable
Bit rate : 3 476 kb/s
Channel(s) : 6 channels
Channel layout : C L R Ls Rs LFE
Sampling rate : 48.0 kHz
Frame rate : 93.750 FPS (512 SPF)
Bit depth : 24 bits
Compression mode : Lossless
Stream size : 2.20 GiB (8%)
Title : Last.Moment.of.Clarity.2020.1080p.BluRay.REMUX.AVC.DTS-HD.MA.TrueHD.5.1-FGT
Language : English
Default : No
Forced : No

Audio #3
ID : 4
ID in the original source medium : 4352 (0x1100)
Format : AC-3
Format/Info : Audio Coding 3
Commercial name : Dolby Digital
Codec ID : A_AC3
Duration : 1 h 30 min
Bit rate mode : Constant
Bit rate : 640 kb/s
Channel(s) : 6 channels
Channel layout : L R C LFE Ls Rs
Sampling rate : 48.0 kHz
Frame rate : 31.250 FPS (1536 SPF)
Bit depth : 16 bits
Compression mode : Lossy
Stream size : 414 MiB (2%)
Title : Last.Moment.of.Clarity.2020.1080p.BluRay.REMUX.AVC.DTS-HD.MA.TrueHD.5.1-FGT
Language : English
Service kind : Complete Main
Default : No
Forced : No
Original source medium : Blu-ray

Audio #4
ID : 5
ID in the original source medium : 4353 (0x1101)
Format : MLP FBA
Format/Info : Meridian Lossless Packing FBA
Commercial name : Dolby TrueHD
Codec ID : A_TRUEHD
Duration : 1 h 30 min
Bit rate mode : Variable
Bit rate : 3 188 kb/s
Maximum bit rate : 4 896 kb/s
Channel(s) : 6 channels
Channel layout : L R C LFE Ls Rs
Sampling rate : 48.0 kHz
Frame rate : 1 200.000 FPS (40 SPF)
Compression mode : Lossless
Stream size : 2.02 GiB (8%)
Title : Last.Moment.of.Clarity.2020.1080p.BluRay.REMUX.AVC.DTS-HD.MA.TrueHD.5.1-FGT
Language : French
Default : No
Forced : No
Original source medium : Blu-ray

Audio #5
ID : 6
ID in the original source medium : 4353 (0x1101)
Format : AC-3
Format/Info : Audio Coding 3
Commercial name : Dolby Digital
Codec ID : A_AC3
Duration : 1 h 30 min
Bit rate mode : Constant
Bit rate : 640 kb/s
Channel(s) : 6 channels
Channel layout : L R C LFE Ls Rs
Sampling rate : 48.0 kHz
Frame rate : 31.250 FPS (1536 SPF)
Bit depth : 16 bits
Compression mode : Lossy
Stream size : 414 MiB (2%)
Title : Last.Moment.of.Clarity.2020.1080p.BluRay.REMUX.AVC.DTS-HD.MA.TrueHD.5.1-FGT
Language : French
Service kind : Complete Main
Default : No
Forced : No
Original source medium : Blu-ray

Audio #6
ID : 7
ID in the original source medium : 4354 (0x1102)
Format : AC-3
Format/Info : Audio Coding 3
Commercial name : Dolby Digital
Codec ID : A_AC3
Duration : 1 h 30 min
Bit rate mode : Constant
Bit rate : 640 kb/s
Channel(s) : 2 channels
Channel layout : L R
Sampling rate : 48.0 kHz
Frame rate : 31.250 FPS (1536 SPF)
Bit depth : 16 bits
Compression mode : Lossy
Stream size : 413 MiB (2%)
Title : Last.Moment.of.Clarity.2020.1080p.BluRay.REMUX.AVC.DTS-HD.MA.TrueHD.5.1-FGT
Language : English
Service kind : Complete Main
Default : No
Forced : No
Original source medium : Blu-ray

Text #1
ID : 8
Format : UTF-8
Codec ID : S_TEXT/UTF8
Codec ID/Info : UTF-8 Plain Text
Duration : 1 h 26 min
Bit rate : 36 b/s
Count of elements : 914
Stream size : 22.8 KiB (0%)
Title : English-SRT
Language : English
Default : Yes
Forced : No

Text #2
ID : 9
ID in the original source medium : 4608 (0x1200)
Format : PGS
Muxing mode : zlib
Codec ID : S_HDMV/PGS
Codec ID/Info : Picture based subtitle format used on BDs/HD-DVDs
Duration : 1 h 26 min
Bit rate : 19.0 kb/s
Count of elements : 2016
Stream size : 11.7 MiB (0%)
Title : English-PGS
Language : English
Default : No
Forced : No
Original source medium : Blu-ray

Text #3
ID : 10
ID in the original source medium : 4609 (0x1201)
Format : PGS
Muxing mode : zlib
Codec ID : S_HDMV/PGS
Codec ID/Info : Picture based subtitle format used on BDs/HD-DVDs
Duration : 1 h 29 min
Bit rate : 22.4 kb/s
Count of elements : 2102
Stream size : 14.3 MiB (0%)
Title : French-PGS
Language : French
Default : No
Forced : No
Original source medium : Blu-ray

Text #4
ID : 11
ID in the original source medium : 4610 (0x1202)
Format : PGS
Muxing mode : zlib
Codec ID : S_HDMV/PGS
Codec ID/Info : Picture based subtitle format used on BDs/HD-DVDs
Duration : 1 h 4 min
Bit rate : 713 b/s
Count of elements : 22
Stream size : 335 KiB (0%)
Title : French-FORCED-PGS
Language : French
Default : No
Forced : No
Original source medium : Blu-ray

Menu
00:00:00.000 : en:Chapter 01
00:12:12.815 : en:Chapter 02
00:24:43.773 : en:Chapter 03
00:38:32.351 : en:Chapter 04
00:52:28.603 : en:Chapter 05
01:04:28.155 : en:Chapter 06
01:17:29.436 : en:Chapter 07
01:26:32.478 : en:Chapter 08

本帖子中包含更多资源

您需要 登录 才可以下载或查看,没有帐号?立即注册

x
回复

使用道具 举报

0

主题

737

帖子

3206

积分

论坛元老

Rank: 8Rank: 8

积分
3206
发表于 2020-9-22 20:40:05 | 显示全部楼层
感谢楼主分享高清影片
回复

使用道具 举报

0

主题

695

帖子

5502

积分

VIP永久

Rank: 12Rank: 12Rank: 12

积分
5502
发表于 2020-9-23 09:46:12 | 显示全部楼层
感谢楼主分享!!!
回复

使用道具 举报

0

主题

180

帖子

963

积分

高级会员

Rank: 4

积分
963
发表于 2020-9-23 23:09:43 | 显示全部楼层
女主很漂亮
回复

使用道具 举报

0

主题

73

帖子

377

积分

中级会员

Rank: 3Rank: 3

积分
377
发表于 2020-10-4 09:23:05 | 显示全部楼层
收了不少原盘 谢谢分享
回复

使用道具 举报

您需要登录后才可以回帖 登录 | 立即注册

本版积分规则

QQ|Archiver|手机版|小黑屋|原盘天堂 盘盘多 点击这里给我发消息

GMT+8, 2020-10-27 07:53 , Processed in 0.064655 second(s), 24 queries .

Powered by Discuz! X3.4

Copyright © 2001-2020, Tencent Cloud.

快速回复 返回顶部 返回列表