请选择 进入手机版 | 继续访问电脑版
本站原来Q群已取消,请原Q群会员和其他未入群会员加原盘天堂新官方QQ群713428235【盘盘多】,验证信息填写您在论坛的会员名,不填会员名的无法入群哈,进群后修改您的群名片名字为您在论坛的会员名,请务必修改,否则群成员多了不知道您是哪个会员,无法为您发送高速链接!

原盘天堂

 找回密码
 立即注册
查看: 176|回复: 7

4k蓝光原盘bdmv 全金属外壳 中文字幕 full.metal.jacket.1987.2160p.bluray.hevc.dts-hd.ma.5.1[60.16 GB]

[复制链接]

5453

主题

5980

帖子

129万

积分

管理员

Rank: 18Rank: 18Rank: 18Rank: 18Rank: 18

积分
1295145
发表于 2020-9-22 09:39:38 | 显示全部楼层 |阅读模式






全金属外壳 Full Metal Jacket (1987)

导演: 斯坦利·库布里克
编剧: 斯坦利·库布里克 / 迈克尔·海尔 / 古斯塔夫·哈斯福德
主演: 马修·莫迪恩 / 亚当·鲍德温 / 文森特·多诺费奥 / 李·厄米 / 道林·海伍德 / 更多...
类型: 剧情 / 战争
制片国家/地区: 英国 / 美国
语言: 英语 / 越南语
上映日期: 1987-06-17
片长: 116 分钟
又名: 烈血焚城(港) / 金甲部队(台) / 金甲战士

豆瓣评分
8.6
99248人评价
5星41.7%
4星46.1%
3星11.3%
2星0.8%
1星0.2%
好于 91% 战争片
好于 92% 剧情片

剧情简介 · · · · · ·
  越战期间,美军大量征兵。大批年轻人应征入伍,在新兵营接受“残忍”的训练。“傻瓜”比尔运动神经不发达,常常犯错而连累所有人一起受罚。“小丑”(马修•莫迪恩 Matthew Modine 饰)奉命帮助比尔,但比尔还是老犯错误,连累其他人。大家忍无可忍下打了他一顿,比尔从此变得精神恍惚,在新兵营毕业前夕枪杀教官后吞枪自杀。
  “小丑”随后分到了军队新闻组。他在采访中看到了当时的同伴们都已经变得麻木、残忍。一次,“小丑”随“牛仔”执行任务时,遭到越共狙击手伏击,“牛仔”亦不幸中弹身亡。众人经过一番搜索,击伤了狙击手。“小丑”发现狙击手竟是一个年轻少女。有人提议留下她挣扎而死,“小丑”在少女“杀了我”的哀求声中,扣下了扳机。

DISC INFO:

Disc Title:     Full.Metal.Jacket.1987.2160p.BluRay.HEVC.DTS-HD.MA.5.1-EATDIK
Disc Size:      64,323,933,079 bytes
Protection:     AACS2
Extras:         Ultra HD, BD-Java
BDInfo:         0.7.5.9 (compatible layout created by DVDFab 11.1.0.6)

PLAYLIST REPORT:

Name:                   00800.MPLS  
Length:                 1:56:33.277 (h:m:s.ms)
Size:                   63,050,582,016 bytes
Total Bitrate:          72.13 Mbps

(*) Indicates included stream hidden by this playlist.

VIDEO:

Codec                   Bitrate             Description   
-----                   -------             -----------   
MPEG-H HEVC Video       62691 kbps          2160p / 23.976 fps / 16:9 / Main 10 @ Level 5.1 @ High / 4:2:0 / 10 bits / 4000nits / HDR10 / BT.2020

AUDIO:

Codec                           Language        Bitrate         Description   
-----                           --------        -------         -----------   
DTS-HD Master Audio             English         2297 kbps       5.1 / 48 kHz / 2297 kbps / 16-bit (DTS Core: 5.1 / 48 kHz / 1509 kbps / 16-bit)
Dolby Digital Audio             English         192 kbps        1.0 / 48 kHz / 192 kbps
Dolby Digital Audio             French          448 kbps        5.1 / 48 kHz / 448 kbps
Dolby Digital Audio             German          448 kbps        5.1 / 48 kHz / 448 kbps
Dolby Digital Audio             Italian         448 kbps        5.1 / 48 kHz / 448 kbps
Dolby Digital Audio             Spanish         448 kbps        5.1 / 48 kHz / 448 kbps
Dolby Digital Audio             Spanish         448 kbps        5.1 / 48 kHz / 448 kbps
Dolby Digital Audio             Polish          192 kbps        2.0 / 48 kHz / 192 kbps
Dolby Digital Audio             English         192 kbps        2.0 / 48 kHz / 192 kbps
* Dolby Digital Audio           Japanese        192 kbps        2.0 / 48 kHz / 192 kbps

SUBTITLES:

Codec                           Language        Bitrate         Description   
-----                           --------        -------         -----------   
Presentation Graphics           English         36.269 kbps                    
Presentation Graphics           French          25.607 kbps                    
Presentation Graphics           German          33.275 kbps                    
Presentation Graphics           Italian         32.169 kbps                    
Presentation Graphics           Spanish         26.989 kbps                    
Presentation Graphics           Dutch           25.023 kbps                    
Presentation Graphics           Chinese         29.07 kbps                     
Presentation Graphics           Chinese         25.288 kbps                    
Presentation Graphics           Korean          19.741 kbps                    
Presentation Graphics           Spanish         30.91 kbps                     
Presentation Graphics           Arabic          17.102 kbps                    
Presentation Graphics           Czech           25.979 kbps                    
Presentation Graphics           Danish          24.674 kbps                    
Presentation Graphics           Finnish         21.223 kbps                    
Presentation Graphics           Norwegian       23.514 kbps                    
Presentation Graphics           Polish          25.552 kbps                    
Presentation Graphics           Romanian        23.876 kbps                    
Presentation Graphics           Swedish         23.06 kbps                     
Presentation Graphics           Thai            26.287 kbps                    
Presentation Graphics           French          0.022 kbps                     
Presentation Graphics           German          0.031 kbps                     
Presentation Graphics           Italian         0.057 kbps                     
Presentation Graphics           Spanish         0.035 kbps                     
Presentation Graphics           Spanish         0.131 kbps                     
* Presentation Graphics         Japanese        22.713 kbps                    
* Presentation Graphics         Japanese        42.813 kbps                    
* Presentation Graphics         Japanese        0.628 kbps   

Video
ID : 1
ID in the original source medium : 4113 (0x1011)
Format : HEVC
Format/Info : High Efficiency Video Coding
Format profile : Main [email protected]@High
HDR format : SMPTE ST 2086, HDR10 compatible
Codec ID : V_MPEGH/ISO/HEVC
Duration : 1 h 56 min
Bit rate : 62.7 Mb/s
Width : 3 840 pixels
Height : 2 160 pixels
Display aspect ratio : 16:9
Frame rate mode : Constant
Frame rate : 23.976 (24000/1001) FPS
Color space : YUV
Chroma subsampling : 4:2:0 (Type 2)
Bit depth : 10 bits
Bits/(Pixel*Frame) : 0.315
Stream size : 51.0 GiB (92%)
Title : Full.Metal.Jacket.1987.2160p.BluRay.REMUX.HEVC.DTS-HD.MA.5.1-FGT
Writing library : ATEME Titan File 3.9.6 (4.9.6.2)
Language : English
Default : No
Forced : No
Color range : Limited
Color primaries : BT.2020
Transfer characteristics : PQ
Matrix coefficients : BT.2020 non-constant
Mastering display color primaries : Display P3
Mastering display luminance : min: 0.0050 cd/m2, max: 4000 cd/m2
Maximum Content Light Level : 1246 cd/m2
Maximum Frame-Average Light Level : 159 cd/m2
Original source medium : Blu-ray

Audio #1
ID : 2
ID in the original source medium : 4352 (0x1100)
Format : DTS XLL
Format/Info : Digital Theater Systems
Commercial name : DTS-HD Master Audio
Codec ID : A_DTS
Duration : 1 h 56 min
Bit rate mode : Variable
Bit rate : 2 297 kb/s
Channel(s) : 6 channels
Channel layout : C L R Ls Rs LFE
Sampling rate : 48.0 kHz
Frame rate : 93.750 FPS (512 SPF)
Bit depth : 16 bits
Compression mode : Lossless
Stream size : 1.87 GiB (3%)
Title : Full.Metal.Jacket.1987.2160p.BluRay.REMUX.HEVC.DTS-HD.MA.5.1-FGT
Language : English
Default : Yes
Forced : No
Original source medium : Blu-ray

Audio #2
ID : 3
ID in the original source medium : 4353 (0x1101)
Format : AC-3
Format/Info : Audio Coding 3
Commercial name : Dolby Digital
Codec ID : A_AC3
Duration : 1 h 56 min
Bit rate mode : Constant
Bit rate : 192 kb/s
Channel(s) : 1 channel
Channel layout : C
Sampling rate : 48.0 kHz
Frame rate : 31.250 FPS (1536 SPF)
Compression mode : Lossy
Stream size : 160 MiB (0%)
Title : Full.Metal.Jacket.1987.2160p.BluRay.REMUX.HEVC.DTS-HD.MA.5.1-FGT
Language : English
Service kind : Complete Main
Default : No
Forced : No
Original source medium : Blu-ray

Audio #3
ID : 4
ID in the original source medium : 4354 (0x1102)
Format : AC-3
Format/Info : Audio Coding 3
Commercial name : Dolby Digital
Codec ID : A_AC3
Duration : 1 h 56 min
Bit rate mode : Constant
Bit rate : 448 kb/s
Channel(s) : 6 channels
Channel layout : L R C LFE Ls Rs
Sampling rate : 48.0 kHz
Frame rate : 31.250 FPS (1536 SPF)
Compression mode : Lossy
Stream size : 373 MiB (1%)
Title : Full.Metal.Jacket.1987.2160p.BluRay.REMUX.HEVC.DTS-HD.MA.5.1-FGT
Language : French
Service kind : Complete Main
Default : No
Forced : No
Original source medium : Blu-ray

Audio #4
ID : 5
ID in the original source medium : 4355 (0x1103)
Format : AC-3
Format/Info : Audio Coding 3
Commercial name : Dolby Digital
Codec ID : A_AC3
Duration : 1 h 56 min
Bit rate mode : Constant
Bit rate : 448 kb/s
Channel(s) : 6 channels
Channel layout : L R C LFE Ls Rs
Sampling rate : 48.0 kHz
Frame rate : 31.250 FPS (1536 SPF)
Compression mode : Lossy
Stream size : 373 MiB (1%)
Title : Full.Metal.Jacket.1987.2160p.BluRay.REMUX.HEVC.DTS-HD.MA.5.1-FGT
Language : German
Service kind : Complete Main
Default : No
Forced : No
Original source medium : Blu-ray

Audio #5
ID : 6
ID in the original source medium : 4356 (0x1104)
Format : AC-3
Format/Info : Audio Coding 3
Commercial name : Dolby Digital
Codec ID : A_AC3
Duration : 1 h 56 min
Bit rate mode : Constant
Bit rate : 448 kb/s
Channel(s) : 6 channels
Channel layout : L R C LFE Ls Rs
Sampling rate : 48.0 kHz
Frame rate : 31.250 FPS (1536 SPF)
Compression mode : Lossy
Stream size : 373 MiB (1%)
Title : Full.Metal.Jacket.1987.2160p.BluRay.REMUX.HEVC.DTS-HD.MA.5.1-FGT
Language : Italian
Service kind : Complete Main
Default : No
Forced : No
Original source medium : Blu-ray

Audio #6
ID : 7
ID in the original source medium : 4357 (0x1105)
Format : AC-3
Format/Info : Audio Coding 3
Commercial name : Dolby Digital
Codec ID : A_AC3
Duration : 1 h 56 min
Bit rate mode : Constant
Bit rate : 448 kb/s
Channel(s) : 6 channels
Channel layout : L R C LFE Ls Rs
Sampling rate : 48.0 kHz
Frame rate : 31.250 FPS (1536 SPF)
Compression mode : Lossy
Stream size : 373 MiB (1%)
Title : Full.Metal.Jacket.1987.2160p.BluRay.REMUX.HEVC.DTS-HD.MA.5.1-FGT
Language : Spanish
Service kind : Complete Main
Default : No
Forced : No
Original source medium : Blu-ray

Audio #7
ID : 8
ID in the original source medium : 4358 (0x1106)
Format : AC-3
Format/Info : Audio Coding 3
Commercial name : Dolby Digital
Codec ID : A_AC3
Duration : 1 h 56 min
Bit rate mode : Constant
Bit rate : 448 kb/s
Channel(s) : 6 channels
Channel layout : L R C LFE Ls Rs
Sampling rate : 48.0 kHz
Frame rate : 31.250 FPS (1536 SPF)
Compression mode : Lossy
Stream size : 373 MiB (1%)
Title : Full.Metal.Jacket.1987.2160p.BluRay.REMUX.HEVC.DTS-HD.MA.5.1-FGT
Language : Spanish
Service kind : Complete Main
Default : No
Forced : No
Original source medium : Blu-ray

Audio #8
ID : 9
ID in the original source medium : 4359 (0x1107)
Format : AC-3
Format/Info : Audio Coding 3
Commercial name : Dolby Digital
Codec ID : A_AC3
Duration : 1 h 56 min
Bit rate mode : Constant
Bit rate : 192 kb/s
Channel(s) : 2 channels
Channel layout : L R
Sampling rate : 48.0 kHz
Frame rate : 31.250 FPS (1536 SPF)
Compression mode : Lossy
Stream size : 160 MiB (0%)
Title : Full.Metal.Jacket.1987.2160p.BluRay.REMUX.HEVC.DTS-HD.MA.5.1-FGT
Language : Polish
Service kind : Complete Main
Default : No
Forced : No
Original source medium : Blu-ray

Audio #9
ID : 10
ID in the original source medium : 4361 (0x1109)
Format : AC-3
Format/Info : Audio Coding 3
Commercial name : Dolby Digital
Codec ID : A_AC3
Duration : 1 h 56 min
Bit rate mode : Constant
Bit rate : 192 kb/s
Channel(s) : 2 channels
Channel layout : L R
Sampling rate : 48.0 kHz
Frame rate : 31.250 FPS (1536 SPF)
Compression mode : Lossy
Stream size : 160 MiB (0%)
Title : Full.Metal.Jacket.1987.2160p.BluRay.REMUX.HEVC.DTS-HD.MA.5.1-FGT
Language : English
Service kind : Complete Main
Default : No
Forced : No
Original source medium : Blu-ray

Text #1
ID : 11
Format : UTF-8
Codec ID : S_TEXT/UTF8
Codec ID/Info : UTF-8 Plain Text
Duration : 1 h 50 min
Bit rate : 57 b/s
Count of elements : 1357
Stream size : 46.3 KiB (0%)
Title : English-SRT
Language : English
Default : Yes
Forced : No

Text #2
ID : 12
ID in the original source medium : 4769 (0x12A1)
Format : PGS
Muxing mode : zlib
Codec ID : S_HDMV/PGS
Codec ID/Info : Picture based subtitle format used on BDs/HD-DVDs
Duration : 1 h 55 min
Bit rate : 36.5 kb/s
Count of elements : 3126
Stream size : 30.2 MiB (0%)
Title : English-PGS
Language : English
Default : No
Forced : No
Original source medium : Blu-ray

Text #3
ID : 13
ID in the original source medium : 4770 (0x12A2)
Format : PGS
Muxing mode : zlib
Codec ID : S_HDMV/PGS
Codec ID/Info : Picture based subtitle format used on BDs/HD-DVDs
Duration : 1 h 56 min
Bit rate : 25.7 kb/s
Count of elements : 2218
Stream size : 21.3 MiB (0%)
Title : French-PGS
Language : French
Default : No
Forced : No
Original source medium : Blu-ray

Text #4
ID : 14
ID in the original source medium : 4771 (0x12A3)
Format : PGS
Muxing mode : zlib
Codec ID : S_HDMV/PGS
Codec ID/Info : Picture based subtitle format used on BDs/HD-DVDs
Duration : 1 h 55 min
Bit rate : 33.5 kb/s
Count of elements : 3132
Stream size : 27.7 MiB (0%)
Title : German-PGS
Language : German
Default : No
Forced : No
Original source medium : Blu-ray

Text #5
ID : 15
ID in the original source medium : 4772 (0x12A4)
Format : PGS
Muxing mode : zlib
Codec ID : S_HDMV/PGS
Codec ID/Info : Picture based subtitle format used on BDs/HD-DVDs
Duration : 1 h 55 min
Bit rate : 32.4 kb/s
Count of elements : 3218
Stream size : 26.8 MiB (0%)
Title : Italian-PGS
Language : Italian
Default : No
Forced : No
Original source medium : Blu-ray

Text #6
ID : 16
ID in the original source medium : 4773 (0x12A5)
Format : PGS
Muxing mode : zlib
Codec ID : S_HDMV/PGS
Codec ID/Info : Picture based subtitle format used on BDs/HD-DVDs
Duration : 1 h 52 min
Bit rate : 28.0 kb/s
Count of elements : 2364
Stream size : 22.5 MiB (0%)
Title : Spanish-PGS
Language : Spanish
Default : No
Forced : No
Original source medium : Blu-ray

Text #7
ID : 17
ID in the original source medium : 4774 (0x12A6)
Format : PGS
Muxing mode : zlib
Codec ID : S_HDMV/PGS
Codec ID/Info : Picture based subtitle format used on BDs/HD-DVDs
Duration : 1 h 50 min
Bit rate : 26.3 kb/s
Count of elements : 2378
Stream size : 20.9 MiB (0%)
Title : Dutch-PGS
Language : Dutch
Default : No
Forced : No
Original source medium : Blu-ray

Text #8
ID : 18
ID in the original source medium : 4775 (0x12A7)
Format : PGS
Muxing mode : zlib
Codec ID : S_HDMV/PGS
Codec ID/Info : Picture based subtitle format used on BDs/HD-DVDs
Duration : 1 h 56 min
Bit rate : 29.2 kb/s
Count of elements : 2978
Stream size : 24.2 MiB (0%)
Title : Chinese-PGS
Language : Chinese
Default : No
Forced : No
Original source medium : Blu-ray

Text #9
ID : 19
ID in the original source medium : 4776 (0x12A8)
Format : PGS
Muxing mode : zlib
Codec ID : S_HDMV/PGS
Codec ID/Info : Picture based subtitle format used on BDs/HD-DVDs
Duration : 1 h 52 min
Bit rate : 26.3 kb/s
Count of elements : 2912
Stream size : 21.1 MiB (0%)
Title : Chinese-PGS
Language : Chinese
Default : No
Forced : No
Original source medium : Blu-ray

Text #10
ID : 20
ID in the original source medium : 4777 (0x12A9)
Format : PGS
Muxing mode : zlib
Codec ID : S_HDMV/PGS
Codec ID/Info : Picture based subtitle format used on BDs/HD-DVDs
Duration : 1 h 52 min
Bit rate : 20.5 kb/s
Count of elements : 2690
Stream size : 16.5 MiB (0%)
Title : Korean-PGS
Language : Korean
Default : No
Forced : No
Original source medium : Blu-ray

Text #11
ID : 21
ID in the original source medium : 4778 (0x12AA)
Format : PGS
Muxing mode : zlib
Codec ID : S_HDMV/PGS
Codec ID/Info : Picture based subtitle format used on BDs/HD-DVDs
Duration : 1 h 52 min
Bit rate : 32.1 kb/s
Count of elements : 2968
Stream size : 25.8 MiB (0%)
Title : Spanish-PGS
Language : Spanish
Default : No
Forced : No
Original source medium : Blu-ray

Text #12
ID : 22
ID in the original source medium : 4779 (0x12AB)
Format : PGS
Muxing mode : zlib
Codec ID : S_HDMV/PGS
Codec ID/Info : Picture based subtitle format used on BDs/HD-DVDs
Duration : 1 h 52 min
Bit rate : 17.8 kb/s
Count of elements : 2374
Stream size : 14.3 MiB (0%)
Title : Arabic-PGS
Language : Arabic
Default : No
Forced : No
Original source medium : Blu-ray

Text #13
ID : 23
ID in the original source medium : 4780 (0x12AC)
Format : PGS
Muxing mode : zlib
Codec ID : S_HDMV/PGS
Codec ID/Info : Picture based subtitle format used on BDs/HD-DVDs
Duration : 1 h 52 min
Bit rate : 27.0 kb/s
Count of elements : 2810
Stream size : 21.7 MiB (0%)
Title : Czech-PGS
Language : Czech
Default : No
Forced : No
Original source medium : Blu-ray

Text #14
ID : 24
ID in the original source medium : 4781 (0x12AD)
Format : PGS
Muxing mode : zlib
Codec ID : S_HDMV/PGS
Codec ID/Info : Picture based subtitle format used on BDs/HD-DVDs
Duration : 1 h 56 min
Bit rate : 24.8 kb/s
Count of elements : 2310
Stream size : 20.6 MiB (0%)
Title : Danish-PGS
Language : Danish
Default : No
Forced : No
Original source medium : Blu-ray

Text #15
ID : 25
ID in the original source medium : 4782 (0x12AE)
Format : PGS
Muxing mode : zlib
Codec ID : S_HDMV/PGS
Codec ID/Info : Picture based subtitle format used on BDs/HD-DVDs
Duration : 1 h 52 min
Bit rate : 22.1 kb/s
Count of elements : 2302
Stream size : 17.7 MiB (0%)
Title : Finnish-PGS
Language : Finnish
Default : No
Forced : No
Original source medium : Blu-ray

Text #16
ID : 26
ID in the original source medium : 4783 (0x12AF)
Format : PGS
Muxing mode : zlib
Codec ID : S_HDMV/PGS
Codec ID/Info : Picture based subtitle format used on BDs/HD-DVDs
Duration : 1 h 50 min
Bit rate : 24.7 kb/s
Count of elements : 2244
Stream size : 19.6 MiB (0%)
Title : Norwegian-PGS
Language : Norwegian
Default : No
Forced : No
Original source medium : Blu-ray

Text #17
ID : 27
ID in the original source medium : 4784 (0x12B0)
Format : PGS
Muxing mode : zlib
Codec ID : S_HDMV/PGS
Codec ID/Info : Picture based subtitle format used on BDs/HD-DVDs
Duration : 1 h 50 min
Bit rate : 26.9 kb/s
Count of elements : 2380
Stream size : 21.3 MiB (0%)
Title : Polish-PGS
Language : Polish
Default : No
Forced : No
Original source medium : Blu-ray

Text #18
ID : 28
ID in the original source medium : 4785 (0x12B1)
Format : PGS
Muxing mode : zlib
Codec ID : S_HDMV/PGS
Codec ID/Info : Picture based subtitle format used on BDs/HD-DVDs
Duration : 1 h 52 min
Bit rate : 24.8 kb/s
Count of elements : 2436
Stream size : 19.9 MiB (0%)
Title : Romanian-PGS
Language : Romanian
Default : No
Forced : No
Original source medium : Blu-ray

Text #19
ID : 29
ID in the original source medium : 4786 (0x12B2)
Format : PGS
Muxing mode : zlib
Codec ID : S_HDMV/PGS
Codec ID/Info : Picture based subtitle format used on BDs/HD-DVDs
Duration : 1 h 50 min
Bit rate : 24.2 kb/s
Count of elements : 2244
Stream size : 19.2 MiB (0%)
Title : Swedish-PGS
Language : Swedish
Default : No
Forced : No
Original source medium : Blu-ray

Text #20
ID : 30
ID in the original source medium : 4787 (0x12B3)
Format : PGS
Muxing mode : zlib
Codec ID : S_HDMV/PGS
Codec ID/Info : Picture based subtitle format used on BDs/HD-DVDs
Duration : 1 h 56 min
Bit rate : 26.4 kb/s
Count of elements : 2932
Stream size : 21.9 MiB (0%)
Title : Thai-PGS
Language : Thai
Default : No
Forced : No
Original source medium : Blu-ray

Text #21
ID : 31
ID in the original source medium : 4789 (0x12B5)
Format : PGS
Muxing mode : zlib
Codec ID : S_HDMV/PGS
Codec ID/Info : Picture based subtitle format used on BDs/HD-DVDs
Duration : 12 s 450 ms
Bit rate : 12.4 kb/s
Count of elements : 4
Stream size : 18.8 KiB (0%)
Title : French-FORCED-PGS
Language : French
Default : No
Forced : No
Original source medium : Blu-ray

Text #22
ID : 32
ID in the original source medium : 4790 (0x12B6)
Format : PGS
Muxing mode : zlib
Codec ID : S_HDMV/PGS
Codec ID/Info : Picture based subtitle format used on BDs/HD-DVDs
Duration : 22 min 40 s
Bit rate : 161 b/s
Count of elements : 6
Stream size : 26.7 KiB (0%)
Title : German-FORCED-PGS
Language : German
Default : No
Forced : No
Original source medium : Blu-ray

Text #23
ID : 33
ID in the original source medium : 4791 (0x12B7)
Format : PGS
Muxing mode : zlib
Codec ID : S_HDMV/PGS
Codec ID/Info : Picture based subtitle format used on BDs/HD-DVDs
Duration : 22 min 41 s
Bit rate : 293 b/s
Count of elements : 8
Stream size : 48.8 KiB (0%)
Title : Italian-FORCED-PGS
Language : Italian
Default : No
Forced : No
Original source medium : Blu-ray

Text #24
ID : 34
ID in the original source medium : 4792 (0x12B8)
Format : PGS
Muxing mode : zlib
Codec ID : S_HDMV/PGS
Codec ID/Info : Picture based subtitle format used on BDs/HD-DVDs
Duration : 22 min 42 s
Bit rate : 177 b/s
Count of elements : 6
Stream size : 29.6 KiB (0%)
Title : Spanish-FORCED-PGS
Language : Spanish
Default : No
Forced : No
Original source medium : Blu-ray

Text #25
ID : 35
ID in the original source medium : 4793 (0x12B9)
Format : PGS
Muxing mode : zlib
Codec ID : S_HDMV/PGS
Codec ID/Info : Picture based subtitle format used on BDs/HD-DVDs
Duration : 22 min 43 s
Bit rate : 674 b/s
Count of elements : 14
Stream size : 112 KiB (0%)
Title : Spanish-FORCED-PGS
Language : Spanish
Default : No
Forced : No
Original source medium : Blu-ray

Menu
00:00:00.000 : en:Chapter 01
00:01:36.930 : en:Chapter 02
00:07:34.579 : en:Chapter 03
00:10:01.017 : en:Chapter 04
00:13:21.175 : en:Chapter 05
00:17:40.642 : en:Chapter 06
00:19:42.514 : en:Chapter 07
00:23:49.970 : en:Chapter 08
00:28:10.772 : en:Chapter 09
00:30:17.649 : en:Chapter 10
00:32:27.070 : en:Chapter 11
00:33:54.490 : en:Chapter 12
00:38:21.841 : en:Chapter 13
00:40:03.025 : en:Chapter 14
00:42:57.741 : en:Chapter 15
00:45:29.143 : en:Chapter 16
00:47:52.286 : en:Chapter 17
00:52:02.202 : en:Chapter 18
00:56:36.518 : en:Chapter 19
00:58:37.555 : en:Chapter 20
01:01:33.648 : en:Chapter 21
01:03:43.528 : en:Chapter 22
01:05:53.950 : en:Chapter 23
01:09:02.847 : en:Chapter 24
01:10:27.598 : en:Chapter 25
01:12:22.379 : en:Chapter 26
01:15:38.367 : en:Chapter 27
01:17:50.791 : en:Chapter 28
01:19:49.451 : en:Chapter 29
01:23:00.058 : en:Chapter 30
01:25:33.711 : en:Chapter 31
01:28:27.468 : en:Chapter 32
01:30:55.074 : en:Chapter 33
01:35:43.571 : en:Chapter 34
01:38:47.171 : en:Chapter 35
01:41:46.183 : en:Chapter 36
01:45:13.140 : en:Chapter 37
01:51:07.911 : en:Chapter 38
01:52:57.312 : en:Chapter 39

本帖子中包含更多资源

您需要 登录 才可以下载或查看,没有帐号?立即注册

x
回复

使用道具 举报

0

主题

698

帖子

5525

积分

VIP永久

Rank: 12Rank: 12Rank: 12

积分
5525
发表于 2020-9-23 09:45:07 | 显示全部楼层
感谢楼主分享!!!
回复

使用道具 举报

0

主题

180

帖子

963

积分

高级会员

Rank: 4

积分
963
发表于 2020-9-23 11:38:26 | 显示全部楼层
谢谢分享
回复

使用道具 举报

0

主题

314

帖子

1439

积分

金牌会员

Rank: 6Rank: 6

积分
1439
发表于 2020-9-29 11:29:40 | 显示全部楼层
thank you very much
回复

使用道具 举报

0

主题

73

帖子

377

积分

中级会员

Rank: 3Rank: 3

积分
377
发表于 2020-10-4 08:47:08 | 显示全部楼层
战争经典片  谢谢
回复

使用道具 举报

0

主题

20

帖子

347

积分

VIP永久

Rank: 12Rank: 12Rank: 12

积分
347
发表于 2020-10-5 22:36:58 | 显示全部楼层
#在这里快速回复#4k蓝光原盘bdmv 全金属外壳 中文字幕 full.metal.jacket.1987.2160p.bluray.hevc.dts-hd.ma.5.1[60.16 GB] https://www.4k3dyptt.com/thread-8505-1-1.html (出处: 原盘天堂)  已转账高速链接费用0.5元
回复

使用道具 举报

0

主题

5

帖子

25

积分

新手上路

Rank: 1

积分
25
发表于 2020-10-8 08:42:17 | 显示全部楼层
感谢楼主分享
回复

使用道具 举报

0

主题

102

帖子

531

积分

高级会员

Rank: 4

积分
531
发表于 前天 09:56 | 显示全部楼层
thank you very much
回复

使用道具 举报

您需要登录后才可以回帖 登录 | 立即注册

本版积分规则

QQ|Archiver|手机版|小黑屋|原盘天堂 盘盘多 点击这里给我发消息

GMT+8, 2020-10-27 11:34 , Processed in 0.069245 second(s), 24 queries .

Powered by Discuz! X3.4

Copyright © 2001-2020, Tencent Cloud.

快速回复 返回顶部 返回列表