请选择 进入手机版 | 继续访问电脑版
本站原来Q群已取消,请原Q群会员和其他未入群会员加原盘天堂新官方QQ群713428235【盘盘多】,验证信息填写您在论坛的会员名,不填会员名的无法入群哈,进群后修改您的群名片名字为您在论坛的会员名,请务必修改,否则群成员多了不知道您是哪个会员,无法为您发送高速链接!

原盘天堂

 找回密码
 立即注册
查看: 70|回复: 6

2d蓝光原盘bdmv 芭芭雅嘎:林中恶魔 英语原版 baba.yaga.terror.of.the.dark.forest.2020.russian.1080p.bluray.avc.dts-hd.ma.5.1[31 GB]

[复制链接]

5407

主题

5920

帖子

129万

积分

管理员

Rank: 18Rank: 18Rank: 18Rank: 18Rank: 18

积分
1291336
发表于 2020-9-9 18:07:59 | 显示全部楼层 |阅读模式






芭芭雅嘎:林中恶魔 Яга. Кошмар тёмного леса (2020)

导演: Svyatoslav Podgaevskiy
编剧: 纳塔莉亚·杜波瓦亚 / 伊凡·卡普托诺夫 / Svyatoslav Podgaevskiy
主演: 玛丽安娜·斯皮瓦克 / 斯薇坦娜·乌斯蒂诺娃 / 阿列克谢·罗津 / 奥列格·楚古诺夫 / 伊格·克里普诺夫 / 更多...
类型: 恐怖
制片国家/地区: 俄罗斯
语言: 俄语
上映日期: 2020-02-27(俄罗斯)
片长: 113分钟
又名: 芭芭雅嘎 / Yaga: Koshmar temnogo lesa / Baba Yaga: Terror of the Dark Forest

豆瓣评分
5.4
214人评价
5星6.9%
4星9.0%
3星38.3%
2星37.2%
1星8.5%

剧情简介 · · · · · ·
  这个年轻的家庭搬到市郊的一个新公寓,为他们刚出生的女儿雇了一个保姆。在得到信任后,晚上的保姆吓坏了婴儿和长子埃戈尔,后者正试图告诉父母保姆的奇怪行为,但他们不相信他。为了让父亲冷静,他安装了监控摄像头,但一切正常,没有发现任何可疑之处。一旦埃戈尔回家,他就找不到保姆或小妹妹。但家长们正处于一种奇怪的恍惚状态,不记得他们有一个女儿。
  令人惊讶的是,她带着孩子,所有的玩具和东西都不见了,好像她以前从未来过这里。埃戈尔和他的朋友们去寻找,相信保姆实际上是一个古老的恶魔,俗称雅加。如果他们不能应付,他们的父母也会忘记他们。

DISC INFO:

Disc Title:     Baba.Yaga.Terror.of.the.Dark.Forest.2020.RUSSIAN.1080p.BluRay.AVC.DTS-HD.MA.5.1-FGT
Disc Size:      33,289,188,821 bytes
Protection:     AACS
Extras:         BD-Java
BDInfo:         0.7.5.9 (compatible layout created by DVDFab 11.1.0.4)

PLAYLIST REPORT:

Name:                   01002.MPLS  
Length:                 1:36:40.836 (h:m:s.ms)
Size:                   32,786,638,848 bytes
Total Bitrate:          45.22 Mbps

VIDEO:

Codec                   Bitrate             Description   
-----                   -------             -----------   
MPEG-4 AVC Video        34000 kbps          1080p / 23.976 fps / 16:9 / High Profile 4.1

AUDIO:

Codec                           Language        Bitrate         Description   
-----                           --------        -------         -----------   
DTS-HD Master Audio             English         2416 kbps       5.1 / 48 kHz / 2416 kbps / 24-bit (DTS Core: 5.1 / 48 kHz / 1509 kbps / 24-bit)
DTS-HD Master Audio             English         1696 kbps       2.0 / 48 kHz / 1696 kbps / 24-bit (DTS Core: 2.0 / 48 kHz / 1509 kbps / 24-bit)
DTS-HD Master Audio             Russian         2450 kbps       5.1 / 48 kHz / 2450 kbps / 24-bit (DTS Core: 5.1 / 48 kHz / 1509 kbps / 24-bit)
DTS-HD Master Audio             Russian         1722 kbps       2.0 / 48 kHz / 1722 kbps / 24-bit (DTS Core: 2.0 / 48 kHz / 1509 kbps / 24-bit)

SUBTITLES:

Codec                           Language        Bitrate         Description   
-----                           --------        -------         -----------   
Presentation Graphics           English         21.08 kbps                     
Presentation Graphics           English         14.334 kbps      

Video
ID : 1
ID in the original source medium : 4113 (0x1011)
Format : AVC
Format/Info : Advanced Video Codec
Format profile : [email protected]
Format settings : CABAC / 4 Ref Frames
Format settings, CABAC : Yes
Format settings, Reference frames : 4 frames
Codec ID : V_MPEG4/ISO/AVC
Duration : 1 h 36 min
Bit rate mode : Constant
Bit rate : 31.9 Mb/s
Nominal bit rate : 34.0 Mb/s
Width : 1 920 pixels
Height : 1 080 pixels
Display aspect ratio : 16:9
Frame rate mode : Constant
Frame rate : 23.976 (24000/1001) FPS
Color space : YUV
Chroma subsampling : 4:2:0
Bit depth : 8 bits
Scan type : Progressive
Bits/(Pixel*Frame) : 0.641
Stream size : 21.5 GiB (79%)
Title : Baba.Yaga.Terror.of.the.Dark.Forest.2020.RUSSIAN.1080p.BluRay.REMUX.AVC.DTS-HD.MA.5.1-FGT
Language : English
Default : No
Forced : No
Original source medium : Blu-ray

Audio #1
ID : 2
ID in the original source medium : 4354 (0x1102)
Format : DTS XLL
Format/Info : Digital Theater Systems
Commercial name : DTS-HD Master Audio
Codec ID : A_DTS
Duration : 1 h 36 min
Bit rate mode : Variable
Bit rate : 2 450 kb/s
Channel(s) : 6 channels
Channel layout : C L R Ls Rs LFE
Sampling rate : 48.0 kHz
Frame rate : 93.750 FPS (512 SPF)
Bit depth : 24 bits
Compression mode : Lossless
Stream size : 1.65 GiB (6%)
Title : Baba.Yaga.Terror.of.the.Dark.Forest.2020.RUSSIAN.1080p.BluRay.REMUX.AVC.DTS-HD.MA.5.1-FGT
Language : Russian
Default : Yes
Forced : No
Original source medium : Blu-ray

Audio #2
ID : 3
ID in the original source medium : 4355 (0x1103)
Format : DTS XLL
Format/Info : Digital Theater Systems
Commercial name : DTS-HD Master Audio
Codec ID : A_DTS
Duration : 1 h 36 min
Bit rate mode : Variable
Bit rate : 1 722 kb/s
Channel(s) : 2 channels
Channel layout : L R
Sampling rate : 48.0 kHz
Frame rate : 93.750 FPS (512 SPF)
Bit depth : 24 bits
Compression mode : Lossless
Stream size : 1.16 GiB (4%)
Title : Baba.Yaga.Terror.of.the.Dark.Forest.2020.RUSSIAN.1080p.BluRay.REMUX.AVC.DTS-HD.MA.5.1-FGT
Language : Russian
Default : No
Forced : No
Original source medium : Blu-ray

Audio #3
ID : 4
ID in the original source medium : 4352 (0x1100)
Format : DTS XLL
Format/Info : Digital Theater Systems
Commercial name : DTS-HD Master Audio
Codec ID : A_DTS
Duration : 1 h 36 min
Bit rate mode : Variable
Bit rate : 2 416 kb/s
Channel(s) : 6 channels
Channel layout : C L R Ls Rs LFE
Sampling rate : 48.0 kHz
Frame rate : 93.750 FPS (512 SPF)
Bit depth : 24 bits
Compression mode : Lossless
Stream size : 1.63 GiB (6%)
Title : Baba.Yaga.Terror.of.the.Dark.Forest.2020.RUSSIAN.1080p.BluRay.REMUX.AVC.DTS-HD.MA.5.1-FGT
Language : English
Default : No
Forced : No
Original source medium : Blu-ray

Audio #4
ID : 5
ID in the original source medium : 4353 (0x1101)
Format : DTS XLL
Format/Info : Digital Theater Systems
Commercial name : DTS-HD Master Audio
Codec ID : A_DTS
Duration : 1 h 36 min
Bit rate mode : Variable
Bit rate : 1 696 kb/s
Channel(s) : 2 channels
Channel layout : L R
Sampling rate : 48.0 kHz
Frame rate : 93.750 FPS (512 SPF)
Bit depth : 24 bits
Compression mode : Lossless
Stream size : 1.15 GiB (4%)
Title : Baba.Yaga.Terror.of.the.Dark.Forest.2020.RUSSIAN.1080p.BluRay.REMUX.AVC.DTS-HD.MA.5.1-FGT
Language : English
Default : No
Forced : No
Original source medium : Blu-ray

Text #1
ID : 6
Format : UTF-8
Codec ID : S_TEXT/UTF8
Codec ID/Info : UTF-8 Plain Text
Duration : 1 h 32 min
Bit rate : 27 b/s
Count of elements : 651
Stream size : 18.3 KiB (0%)
Title : English-SRT
Language : English
Default : No
Forced : No

Text #2
ID : 7
ID in the original source medium : 4608 (0x1200)
Format : PGS
Muxing mode : zlib
Codec ID : S_HDMV/PGS
Codec ID/Info : Picture based subtitle format used on BDs/HD-DVDs
Duration : 1 h 32 min
Bit rate : 21.9 kb/s
Count of elements : 2041
Stream size : 14.6 MiB (0%)
Title : English-PGS
Language : English
Default : Yes
Forced : No
Original source medium : Blu-ray

Text #3
ID : 8
ID in the original source medium : 4609 (0x1201)
Format : PGS
Muxing mode : zlib
Codec ID : S_HDMV/PGS
Codec ID/Info : Picture based subtitle format used on BDs/HD-DVDs
Duration : 1 h 32 min
Bit rate : 15.0 kb/s
Count of elements : 1165
Stream size : 9.91 MiB (0%)
Title : English-PGS
Language : English
Default : No
Forced : No
Original source medium : Blu-ray

Menu
00:00:00.000 : en:Chapter 01
00:08:49.987 : en:Chapter 02
00:16:29.488 : en:Chapter 03
00:23:31.827 : en:Chapter 04
00:31:07.490 : en:Chapter 05
00:39:26.655 : en:Chapter 06
00:49:04.983 : en:Chapter 07
00:56:06.696 : en:Chapter 08
01:03:22.048 : en:Chapter 09
01:13:25.067 : en:Chapter 10
01:21:45.483 : en:Chapter 11
01:33:01.450 : en:Chapter 12
01:36:39.752 : en:Chapter 13

本帖子中包含更多资源

您需要 登录 才可以下载或查看,没有帐号?立即注册

x
回复

使用道具 举报

0

主题

619

帖子

4981

积分

VIP永久

Rank: 12Rank: 12Rank: 12

积分
4981
发表于 2020-9-9 19:25:35 | 显示全部楼层
感谢楼主分享!!!
回复

使用道具 举报

0

主题

435

帖子

5491

积分

论坛元老

Rank: 8Rank: 8

积分
5491
发表于 2020-9-9 21:22:14 | 显示全部楼层
感谢楼主分享!!
回复

使用道具 举报

0

主题

361

帖子

1978

积分

金牌会员

Rank: 6Rank: 6

积分
1978
发表于 2020-9-10 11:05:05 | 显示全部楼层
感谢楼主分享
回复

使用道具 举报

0

主题

139

帖子

1076

积分

金牌会员

Rank: 6Rank: 6

积分
1076
发表于 2020-9-10 11:34:20 | 显示全部楼层
楼主太给力了,这个资源找了很久
回复

使用道具 举报

0

主题

610

帖子

2741

积分

金牌会员

Rank: 6Rank: 6

积分
2741
发表于 2020-9-10 14:42:37 | 显示全部楼层
感谢楼主分享高清影片
回复

使用道具 举报

0

主题

619

帖子

4690

积分

论坛元老

Rank: 8Rank: 8

积分
4690
发表于 2020-9-13 06:26:44 | 显示全部楼层

感谢楼主分
回复

使用道具 举报

您需要登录后才可以回帖 登录 | 立即注册

本版积分规则

QQ|Archiver|手机版|小黑屋|原盘天堂 盘盘多 点击这里给我发消息

GMT+8, 2020-9-24 05:32 , Processed in 0.066679 second(s), 24 queries .

Powered by Discuz! X3.4

Copyright © 2001-2020, Tencent Cloud.

快速回复 返回顶部 返回列表