请选择 进入手机版 | 继续访问电脑版
本站Q群713428235【盘盘多】已满,请新会员加原盘天堂新官方QQ群709708625【好多盘】,验证信息填写您在论坛的会员名,不填会员名的无法入群哈,进群后修改您的群名片名字为您在论坛的会员名,请务必修改,否则群成员多了不知道您是哪个会员。

原盘天堂

 找回密码
 立即注册
京东商城当当华为商城名牌时尚折扣网,一个新型的网上购物平台,我们每周为您精选3~4个国际知名品牌,商品折扣低至2折限时限量售卖,商品囊括时装、护肤品、箱包、皮具、配饰、香水等等,琳琅满目。亿格瑞A10硬盘播放器 苏宁易购
查看: 2655|回复: 28

2d蓝光原盘bdmv 前哨 英语原版 the.outpost.2020.1080p.bluray.avc.dts-hd.ma.5.1[40.16 GB]

[复制链接]

6023

主题

6690

帖子

133万

积分

管理员

Rank: 18Rank: 18Rank: 18Rank: 18Rank: 18

积分
1332463
发表于 2020-8-23 12:49:49 | 显示全部楼层 |阅读模式








前哨 The Outpost (2020)

导演: 罗德·拉里
编剧: 埃瑞克·约翰逊 / 保罗·塔马西 / 杰克·塔伯
主演: 斯科特·伊斯特伍德 / 奥兰多·布鲁姆 / 卡赖伯·兰德里·琼斯 / 雅各布·西皮奥 / 杰克·凯西 / 更多...
类型: 剧情 / 历史 / 战争
制片国家/地区: 保加利亚 / 美国
语言: 英语
上映日期: 2020-07-03(美国)
片长: 123分钟
又名: 72小时前哨救援(台) / 前哨基地

豆瓣评分
7.1
10560人评价
5星11.5%
4星38.8%
3星42.6%
2星5.3%
1星1.7%
好于 34% 战争片
好于 34% 剧情片

剧情简介 · · · · · ·
  斯科特·伊斯特伍德、卡赖伯·兰德里·琼斯、奥兰多·布鲁姆将主演Millennium Media打造的阿富汗战争题材影片[前哨](The Outpost,暂译)。罗德·拉里执导影片,影片则根据CNN记者Jake Tapper著作改编。影片故事将围绕53名美国士兵的真实故事展开,这些士兵与阿富汗东北部约400名敌方武装分子拉开持久的作战。他们所建造的前哨基地位于巴基斯坦边境仅14英里处的三处陡峭山脉底部。基地则面临塔利班恐怖分子的袭击。而驻扎在那里的士兵则面临着巨大威胁。片中斯科特·伊斯特伍德扮演克林特·罗马沙军士,卡赖伯·兰德里·琼斯扮演专业军士Ty Michael Carter,布鲁姆扮演的Benjamin D. Keating在阿富汗战争中不幸丧生。该片预计将在今年8月展开拍摄,影片也将在戛纳电影节寻找买家。

DISC INFO:

Disc Title:     The.Outpost.2020.1080p.BluRay.AVC.DTS-HD.MA.5.1-FGT
Disc Size:      43,125,474,984 bytes
Protection:     AACS
BDInfo:         0.7.5.9 (compatible layout created by DVDFab 11.1.0.1)

PLAYLIST REPORT:

Name:                   00000.MPLS  
Length:                 2:03:13.761 (h:m:s.ms)
Size:                   34,121,920,128 bytes
Total Bitrate:          36.92 Mbps

VIDEO:

Codec                   Bitrate             Description   
-----                   -------             -----------   
MPEG-4 AVC Video        30911 kbps          1080p / 23.976 fps / 16:9 / High Profile 4.1

AUDIO:

Codec                           Language        Bitrate         Description   
-----                           --------        -------         -----------   
DTS-HD Master Audio             English         2139 kbps       5.1 / 48 kHz / 2139 kbps / 16-bit (DTS Core: 5.1 / 48 kHz / 1509 kbps / 16-bit)
LPCM Audio                      English         1536 kbps       2.0 / 48 kHz / 1536 kbps / 16-bit
Dolby Digital Audio             English         192 kbps        2.0 / 48 kHz / 192 kbps

SUBTITLES:

Codec                           Language        Bitrate         Description   
-----                           --------        -------         -----------   
Presentation Graphics           English         31.394 kbps   

Video
ID : 1
ID in the original source medium : 4113 (0x1011)
Format : AVC
Format/Info : Advanced Video Codec
Format profile : [email protected]
Format settings : CABAC / 4 Ref Frames
Format settings, CABAC : Yes
Format settings, Reference frames : 4 frames
Format settings, GOP : M=3, N=12
Codec ID : V_MPEG4/ISO/AVC
Duration : 2 h 3 min
Bit rate mode : Variable
Bit rate : 30.9 Mb/s
Maximum bit rate : 35.1 Mb/s
Width : 1 920 pixels
Height : 1 080 pixels
Display aspect ratio : 16:9
Frame rate mode : Constant
Frame rate : 23.976 (24000/1001) FPS
Standard : NTSC
Color space : YUV
Chroma subsampling : 4:2:0
Bit depth : 8 bits
Scan type : Progressive
Bits/(Pixel*Frame) : 0.622
Stream size : 26.6 GiB (89%)
Title : The.Outpost.2020.1080p.BluRay.REMUX.AVC.DTS-HD.MA.5.1-FGT
Language : English
Default : No
Forced : No
Color range : Limited
Color primaries : BT.709
Transfer characteristics : BT.709
Matrix coefficients : BT.709
Original source medium : Blu-ray

Audio #1
ID : 2
ID in the original source medium : 4352 (0x1100)
Format : DTS XLL
Format/Info : Digital Theater Systems
Commercial name : DTS-HD Master Audio
Codec ID : A_DTS
Duration : 2 h 3 min
Bit rate mode : Variable
Bit rate : 2 139 kb/s
Channel(s) : 6 channels
Channel layout : C L R Ls Rs LFE
Sampling rate : 48.0 kHz
Frame rate : 93.750 FPS (512 SPF)
Bit depth : 16 bits
Compression mode : Lossless
Stream size : 1.84 GiB (6%)
Title : The.Outpost.2020.1080p.BluRay.REMUX.AVC.DTS-HD.MA.5.1-FGT
Language : English
Default : Yes
Forced : No
Original source medium : Blu-ray

Audio #2
ID : 3
ID in the original source medium : 4353 (0x1101)
Format : PCM
Format settings : Little / Signed
Codec ID : A_PCM/INT/LIT
Duration : 2 h 3 min
Bit rate mode : Constant
Bit rate : 1 536 kb/s
Channel(s) : 2 channels
Sampling rate : 48.0 kHz
Frame rate : 30.000 FPS (1600 SPF)
Bit depth : 16 bits
Stream size : 1.32 GiB (4%)
Title : The.Outpost.2020.1080p.BluRay.REMUX.AVC.DTS-HD.MA.5.1-FGT
Language : English
Default : No
Forced : No
Original source medium : Blu-ray

Audio #3
ID : 4
ID in the original source medium : 4354 (0x1102)
Format : AC-3
Format/Info : Audio Coding 3
Commercial name : Dolby Digital
Codec ID : A_AC3
Duration : 2 h 3 min
Bit rate mode : Constant
Bit rate : 192 kb/s
Channel(s) : 2 channels
Channel layout : L R
Sampling rate : 48.0 kHz
Frame rate : 31.250 FPS (1536 SPF)
Bit depth : 16 bits
Compression mode : Lossy
Stream size : 169 MiB (1%)
Title : The.Outpost.2020.1080p.BluRay.REMUX.AVC.DTS-HD.MA.5.1-FGT
Language : English
Service kind : Complete Main
Default : No
Forced : No
Original source medium : Blu-ray

Text #1
ID : 5
Format : UTF-8
Codec ID : S_TEXT/UTF8
Codec ID/Info : UTF-8 Plain Text
Duration : 2 h 1 min
Bit rate : 78 b/s
Count of elements : 2805
Stream size : 69.8 KiB (0%)
Title : English-SRT
Language : English
Default : Yes
Forced : No

Text #2
ID : 6
ID in the original source medium : 4608 (0x1200)
Format : PGS
Muxing mode : zlib
Codec ID : S_HDMV/PGS
Codec ID/Info : Picture based subtitle format used on BDs/HD-DVDs
Duration : 2 h 1 min
Bit rate : 31.7 kb/s
Count of elements : 3362
Stream size : 27.7 MiB (0%)
Title : English-PGS
Language : English
Default : No
Forced : No
Original source medium : Blu-ray

Menu
00:00:00.000 : en:Chapter 01
00:10:37.553 : en:Chapter 02
00:15:19.043 : en:Chapter 03
00:24:02.607 : en:Chapter 04
00:32:55.181 : en:Chapter 05
00:41:55.888 : en:Chapter 06
00:47:04.071 : en:Chapter 07
00:55:30.869 : en:Chapter 08
01:03:51.369 : en:Chapter 09
01:12:43.859 : en:Chapter 10
01:19:51.411 : en:Chapter 11
01:29:15.016 : en:Chapter 12
01:35:39.400 : en:Chapter 13
01:42:09.998 : en:Chapter 14
01:45:05.924 : en:Chapter 15
01:54:08.383 : en:Chapter 16

本帖子中包含更多资源

您需要 登录 才可以下载或查看,没有帐号?立即注册

x
回复

使用道具 举报

0

主题

1178

帖子

8764

积分

VIP永久

Rank: 12Rank: 12Rank: 12

积分
8764
QQ
发表于 2020-8-24 10:02:57 | 显示全部楼层
感谢楼主分享!!!!
回复

使用道具 举报

0

主题

200

帖子

1273

积分

金牌会员

Rank: 6Rank: 6

积分
1273
发表于 2020-8-24 21:59:45 | 显示全部楼层
感谢楼主分享!!!!
回复

使用道具 举报

0

主题

711

帖子

4408

积分

论坛元老

Rank: 8Rank: 8

积分
4408
发表于 2020-8-25 11:08:02 | 显示全部楼层
感谢楼主分享!!!!
回复

使用道具 举报

0

主题

1225

帖子

5181

积分

论坛元老

Rank: 8Rank: 8

积分
5181
发表于 2020-8-25 20:14:30 | 显示全部楼层
感谢楼主分享高清影片
回复

使用道具 举报

0

主题

200

帖子

1273

积分

金牌会员

Rank: 6Rank: 6

积分
1273
发表于 2020-8-26 09:56:50 | 显示全部楼层

感谢楼主分享
回复

使用道具 举报

0

主题

711

帖子

4408

积分

论坛元老

Rank: 8Rank: 8

积分
4408
发表于 2020-8-26 14:07:43 | 显示全部楼层
感谢楼主分享高清影片
回复

使用道具 举报

0

主题

438

帖子

3442

积分

论坛元老

Rank: 8Rank: 8

积分
3442
发表于 2020-8-26 14:45:14 | 显示全部楼层
回复

使用道具 举报

0

主题

115

帖子

748

积分

高级会员

Rank: 4

积分
748
发表于 2020-8-26 20:54:59 | 显示全部楼层
感谢楼主分享
回复

使用道具 举报

0

主题

337

帖子

1895

积分

金牌会员

Rank: 6Rank: 6

积分
1895
发表于 2020-8-27 15:31:17 | 显示全部楼层
感谢楼主分享!!!!
回复

使用道具 举报

您需要登录后才可以回帖 登录 | 立即注册

本版积分规则

QQ|Archiver|手机版|小黑屋|原盘天堂 好多盘 点击这里给我发消息

GMT+8, 2021-6-13 11:29 , Processed in 0.060834 second(s), 26 queries .

Powered by Discuz! X3.4

Copyright © 2001-2020, Tencent Cloud.

快速回复 返回顶部 返回列表