请选择 进入手机版 | 继续访问电脑版
本站原来Q群已取消,请原Q群会员和其他未入群会员加原盘天堂新官方QQ群713428235【盘盘多】,验证信息填写您在论坛的会员名,不填会员名的无法入群哈,进群后修改您的群名片名字为您在论坛的会员名,请务必修改,否则群成员多了不知道您是哪个会员,无法为您发送高速链接!

原盘天堂

 找回密码
 立即注册
查看: 354|回复: 18

4k蓝光原盘bdmv 妖猫传 国粤中字 legend.of.the.demon.cat.2017.uhd.blu-ray.2160p.hevc.truehd.7.1.atmos[58.24 GB]

[复制链接]

5338

主题

5808

帖子

128万

积分

管理员

Rank: 18Rank: 18Rank: 18Rank: 18Rank: 18

积分
1281572
发表于 2020-6-7 08:09:07 | 显示全部楼层 |阅读模式






妖猫传 (2017)

导演: 陈凯歌
编剧: 王蕙玲 / 陈凯歌 / 梦枕貘
主演: 黄轩 / 染谷将太 / 张雨绮 / 秦昊 / 张榕容 / 更多...
类型: 剧情 / 悬疑 / 奇幻 / 古装
制片国家/地区: 中国大陆 / 日本
语言: 汉语普通话 / 日语
上映日期: 2017-12-22(中国大陆) / 2018-02-24(日本)
片长: 129分钟(中国大陆) / 132分钟(日本)
又名: 沙门空海 / 沙门空海之大唐鬼宴 / 大唐鬼宴 / 空海 / 空海 KU-KAI 美しき王妃の謎 / 沙門空海唐の国にて鬼と宴す / Legend of the Demon Cat

豆瓣评分
6.9
576690人评价
5星13.2%
4星35.9%
3星38.4%
2星9.5%
1星3.0%
好于 51% 奇幻片
好于 58% 古装片

剧情简介 · · · · · ·
  故事发生在盛唐时期的长安城,白乐天(黄轩 饰)本是朝廷要官,却为了收集写诗的素材而甘愿被贬为起居郎。长安城内连连发生离奇的死亡事件,就连当今圣上也难逃厄运离奇身亡,这一切都和一只神出鬼没的妖猫有关。日本僧人空海(染谷将太 饰)本为了替皇帝解咒远渡重洋而来,却和白乐天意气相投,两人决心携手调查案件真相。
  一首如怨如诉的《清平调》表明,妖猫作祟和三十年前倾国倾城的杨贵妃(张榕容 饰)之死有着千丝万缕的关联,追寻着曾经迷恋杨贵妃的阿部仲麻吕(阿部宽 饰)所留下的日记,白乐天和空海一同见证了大唐曾经的荣光,亦揭开了当年隐瞒至今的阴谋。

妖猫传 获奖情况
第55届台北金马影展  (2018)
金马奖 最佳美术设计(提名) 陆苇 / 屠楠
金马奖 最佳造型设计(提名) 陈同勋
金马奖 最佳视觉效果(提名) 石井教雄
第32届中国电影金鸡奖  (2019)
最佳男配角(提名) 辛柏青
最佳摄影 曹郁
最佳美术 陆苇 / 屠楠
最佳剪辑(提名) 李点石
最佳录音(提名) 刘佳
第17届中国电影华表奖  (2018)
优秀故事片奖(提名)
优秀摄影 曹郁
第12届亚洲电影大奖  (2018)
最佳导演(提名) 陈凯歌
最佳女配角 张雨绮
最佳摄影(提名) 曹郁
最佳美术指导 陆苇 / 屠楠
最佳造型设计 陈同勋
最佳视觉效果 石井教雄
第18届华语电影传媒大奖  (2018)
最佳导演 陈凯歌
第25届北京大学生电影节  (2018)
最佳导演奖(提名) 陈凯歌
最佳观赏效果奖
第4届豆瓣电影年度榜单  (2017)
12月最受关注电影(提名)
第3届豆瓣电影年度榜单  (2016)
最值得期待的华语电影(提名)

DISC INFO:

Disc Label:     Legend.of.the.Demon.Cat.2017.UHD.Blu-ray.2160p.HEVC.TrueHD.7.1.Atmos
Disc Size:      62,530,317,859 bytes
Protection:     AACS2
Extras:         Ultra HD
BDInfo:         0.7.5.5

PLAYLIST REPORT:

Name:                   00001.MPLS
Length:                 2:09:05.208 (h:m:s.ms)
Size:                   61,157,195,328 bytes
Total Bitrate:          63.17 Mbps

VIDEO:

Codec                               Bitrate              Description     
-----                                  -------               -----------     
MPEG-H HEVC Video       49868 kbps          2160p / 24 fps / 16:9 / Main 10  Level 5.1 @ High / 10 bits / HDR10 / BT.2020

AUDIO:

Codec                                     Language          Bitrate          Description     
-----                                          --------             -------           -----------     
Dolby TrueHD/Atmos Audio        Chinese         4780 kbps       7.1 / 48 kHz /  4140 kbps / 24-bit (AC3 Embedded: 5.1-EX / 48 kHz /   640 kbps / DN -31dB)
Dolby TrueHD Audio                  Chinese         3674 kbps       5.1 / 96 kHz /  3034 kbps / 24-bit (AC3 Embedded: 5.1-EX / 48 kHz /   640 kbps / DN -31dB)

SUBTITLES:

Codec                                Language        Bitrate         Description     
-----                                     --------           -------         -----------     
Presentation Graphics           Chinese         24.427 kbps                     
Presentation Graphics           Chinese         22.674 kbps                     
Presentation Graphics           English          23.229 kbps


General Information:

RELEASE.NAME...: Legend of the Demon Cat 2017 UHD BluRay REMUX 2160p HEVC TrueHD7.1 Atmos
RELEASE.DATE...: 10/02/2018
RUN.TIME.......: 2:09:05.216 (h:m:s.ms)
SIZE...........: 49.4 GiB
CONTAINER......: Matroska
VIDEO.CODEC....: HEVC, Main [email protected]@High
FRAME.RATE.....: 24.000 fps
BIT.RATE.......: 49.8 Mbps
RESOLUTION.....: 3840 x 2160
AUDIO .........: Chinese Atmos / TrueHD 7.1 @ 4140 Kbps
AUDIO .........: Chinese DD 5.1 @ 640 Kbps
CHAPTERS.......: Included
SUBTITLES......: CHT/CHS/ENG
SOURCE.........: Legend of the Demon Cat 2017 UHD BluRay 2160p Atmos TrueHD7.1


HDR Information:
Color Primaries: BT.2020 non-constant
Display Color..: R: x=0.708000 y=0.292000, G: x=0.170000 y=0.797000, B: x=0.131000 y=0.046000, White point: x=0.312700 y=0.329000
Lumiance.......: min: 0.0000 cd/m2, max: 9000.0000 cd/m2
Light Level....: 2840 cd/m2 / Avg. 110 cd/m2


General
Unique ID                      : 78717901857080113060498836914186581158 (0x3B3884350EA4A4874759E176870174A6)
Complete name                  : Legend.of.the.Demon.Cat.2017.UHD.BluRay.REMUX.2160p.HEVC.TrueHD7.1.Atmos.mkv
Format                         : Matroska
Format version                 : Version 4
File size                      : 49.4 GiB
Duration                       : 2 h 9 min
Overall bit rate mode          : Variable
Overall bit rate               : 54.8 Mb/s
Encoded date                   : UTC 2018-10-01 16:17:56
Writing application            : mkvmerge v27.0.0 ('Metropolis') 64-bit
Writing library                : libebml v1.3.6 + libmatroska v1.4.9

Video
ID                             : 1
Format                         : HEVC
Format/Info                    : High Efficiency Video Coding
Commercial name                : HDR10
Format profile                 : Main [email protected]@High
Codec ID                       : V_MPEGH/ISO/HEVC
Duration                       : 2 h 9 min
Bit rate                       : 49.9 Mb/s
Width                          : 3 840 pixels
Height                         : 2 160 pixels
Display aspect ratio           : 16:9
Frame rate mode                : Constant
Frame rate                     : 24.000 FPS
Standard                       : Component
Color space                    : YUV
Chroma subsampling             : 4:2:0 (Type 2)
Bit depth                      : 10 bits
Bits/(Pixel*Frame)             : 0.251
Stream size                    : 45.0 GiB (91%)
Default                        : Yes
Forced                         : No
Color range                    : Limited
Color primaries                : BT.2020
Transfer characteristics       : PQ
Matrix coefficients            : BT.2020 non-constant
Mastering display color primar : BT.2020
Mastering display luminance    : min: 0.0000 cd/m2, max: 9000 cd/m2
Maximum Content Light Level    : 2840 cd/m2
Maximum Frame-Average Light Le : 110 cd/m2

Audio #1
ID                             : 2
Format                         : MLP FBA 16-ch
Format/Info                    : Meridian Lossless Packing FBA with 16-channel presentation
Commercial name                : Dolby TrueHD with Dolby Atmos
Codec ID                       : A_TRUEHD
Duration                       : 2 h 9 min
Bit rate mode                  : Variable
Bit rate                       : 4 141 kb/s
Maximum bit rate               : 7 206 kb/s
Channel(s)                     : 8 channels
Channel layout                 : L R C LFE Ls Rs Lb Rb
Sampling rate                  : 48.0 kHz
Frame rate                     : 1 200.000 FPS (40 SPF)
Compression mode               : Lossless
Stream size                    : 3.73 GiB (8%)
Language                       : Chinese
Default                        : Yes
Forced                         : No
Number of dynamic objects      : 11
Bed channel count              : 1 channel
Bed channel configuration      : LFE

Audio #2
ID                             : 3
Format                         : AC-3
Format/Info                    : Audio Coding 3
Commercial name                : Dolby Digital
Codec ID                       : A_AC3
Duration                       : 2 h 9 min
Bit rate mode                  : Constant
Bit rate                       : 640 kb/s
Channel(s)                     : 6 channels
Channel layout                 : L R C LFE Ls Rs
Sampling rate                  : 48.0 kHz
Frame rate                     : 31.250 FPS (1536 SPF)
Bit depth                      : 16 bits
Compression mode               : Lossy
Stream size                    : 591 MiB (1%)
Language                       : Chinese
Service kind                   : Complete Main
Default                        : No
Forced                         : No

Text #1
ID                             : 4
Format                         : PGS
Muxing mode                    : zlib
Codec ID                       : S_HDMV/PGS
Codec ID/Info                  : Picture based subtitle format used on BDs/HD-DVDs
Duration                       : 2 h 3 min
Bit rate                       : 25.6 kb/s
Count of elements              : 2505
Stream size                    : 22.6 MiB (0%)
Title                          : CHT
Language                       : Chinese
Default                        : Yes
Forced                         : No

Text #2
ID                             : 5
Format                         : PGS
Muxing mode                    : zlib
Codec ID                       : S_HDMV/PGS
Codec ID/Info                  : Picture based subtitle format used on BDs/HD-DVDs
Duration                       : 2 h 3 min
Bit rate                       : 23.8 kb/s
Count of elements              : 2505
Stream size                    : 20.9 MiB (0%)
Title                          : CHS
Language                       : Chinese
Default                        : No
Forced                         : No

Text #3
ID                             : 6
Format                         : PGS
Muxing mode                    : zlib
Codec ID                       : S_HDMV/PGS
Codec ID/Info                  : Picture based subtitle format used on BDs/HD-DVDs
Duration                       : 2 h 3 min
Bit rate                       : 24.4 kb/s
Count of elements              : 2517
Stream size                    : 21.4 MiB (0%)
Title                          : ENG
Language                       : English
Default                        : No
Forced                         : No

Menu
00:00:00.000                   : :第 01 章
00:09:09.750                   : :第 02 章
00:19:17.125                   : :第 03 章
00:27:04.416                   : :第 04 章
00:31:07.708                   : :第 05 章
00:36:53.166                   : :第 06 章
00:42:00.291                   : :第 07 章
00:49:10.208                   : :第 08 章
00:54:01.916                   : :第 09 章
00:59:11.875                   : :第 10 章
01:03:47.291                   : :第 11 章
01:08:10.500                   : :第 12 章
01:12:29.791                   : :第 13 章
01:19:49.666                   : :第 14 章
01:25:21.958                   : :第 15 章
01:31:30.833                   : :第 16 章
01:39:10.666                   : :第 17 章
01:45:36.083                   : :第 18 章
01:53:28.625                   : :第 19 章
02:05:46.000                   : :第 20 章

本帖子中包含更多资源

您需要 登录 才可以下载或查看,没有帐号?立即注册

x
回复

使用道具 举报

0

主题

138

帖子

745

积分

高级会员

Rank: 4

积分
745
发表于 2020-6-7 09:05:12 | 显示全部楼层
感谢分享
回复

使用道具 举报

0

主题

481

帖子

3950

积分

论坛元老

Rank: 8Rank: 8

积分
3950
发表于 2020-6-7 10:43:20 | 显示全部楼层
感谢楼主分享!!!
回复

使用道具 举报

0

主题

548

帖子

4003

积分

论坛元老

Rank: 8Rank: 8

积分
4003
发表于 2020-6-8 06:15:54 | 显示全部楼层
感谢分享
回复

使用道具 举报

0

主题

1398

帖子

7262

积分

论坛元老

Rank: 8Rank: 8

积分
7262
发表于 2020-6-8 07:30:04 | 显示全部楼层
非常不错的电影
回复

使用道具 举报

0

主题

306

帖子

1552

积分

金牌会员

Rank: 6Rank: 6

积分
1552
发表于 2020-6-8 11:42:48 | 显示全部楼层
感谢楼主分享!!!
回复

使用道具 举报

0

主题

464

帖子

2093

积分

金牌会员

Rank: 6Rank: 6

积分
2093
发表于 2020-6-8 13:38:47 | 显示全部楼层
感谢楼主分享高清影片
回复

使用道具 举报

0

主题

127

帖子

637

积分

高级会员

Rank: 4

积分
637
发表于 2020-6-10 12:33:41 | 显示全部楼层
多谢分享,,,,,,,,
回复

使用道具 举报

0

主题

9

帖子

43

积分

新手上路

Rank: 1

积分
43
发表于 2020-6-10 17:19:45 | 显示全部楼层
nice,我喜欢,哈哈哈哈哈
回复

使用道具 举报

0

主题

66

帖子

336

积分

中级会员

Rank: 3Rank: 3

积分
336
发表于 2020-6-13 14:03:24 | 显示全部楼层

多谢分享,,,,
回复

使用道具 举报

您需要登录后才可以回帖 登录 | 立即注册

本版积分规则

QQ|Archiver|手机版|小黑屋|原盘天堂 盘盘多 点击这里给我发消息

GMT+8, 2020-7-15 09:01 , Processed in 0.067319 second(s), 24 queries .

Powered by Discuz! X3.4

Copyright © 2001-2020, Tencent Cloud.

快速回复 返回顶部 返回列表