请选择 进入手机版 | 继续访问电脑版
本站原来Q群已取消,请原Q群会员和其他未入群会员加原盘天堂新官方QQ群713428235【盘盘多】,验证信息填写您在论坛的会员名,不填会员名的无法入群哈,进群后修改您的群名片名字为您在论坛的会员名,请务必修改,否则群成员多了不知道您是哪个会员,无法为您发送高速链接!

原盘天堂

 找回密码
 立即注册
查看: 312|回复: 21

4k蓝光原盘bdmv 福禄双霸天 中文字幕 the.blues.brothers.1980.2in1.uhd.blu-ray.2160p.hevc.dts-x.ma.7.1[88.68 GB]

[复制链接]

5338

主题

5808

帖子

128万

积分

管理员

Rank: 18Rank: 18Rank: 18Rank: 18Rank: 18

积分
1281572
发表于 2020-6-2 10:36:47 | 显示全部楼层 |阅读模式








福禄双霸天 The Blues Brothers (1980)

导演: 约翰·兰迪斯
编剧: 丹·艾克罗伊德 / 约翰·兰迪斯
主演: 约翰·贝鲁西 / 丹·艾克罗伊德 / 詹姆斯·布朗 / 凯比·卡洛威 / 雷·查尔斯 / 更多...
类型: 喜剧 / 动作 / 音乐 / 犯罪
制片国家/地区: 美国
语言: 英语
上映日期: 1980-06-20
片长: 133分钟 / 147分钟(加长版)
又名: 鬼马兄弟(港) / 蓝调兄弟

豆瓣评分
8.3
2572人评价
5星41.3%
4星36.6%
3星18.3%
2星2.9%
1星0.8%
好于 91% 喜剧片
好于 82% 音乐片

剧情简介 · · · · · ·
  这是一部充满音乐表演的无厘头喜剧。杰克(约翰·贝鲁西 John Belushi 饰)和艾伍德(丹·艾克罗伊德 Dan Aykroyd 饰)曾经是音乐狂人,组乐队搞演出是他们的拿手好戏。杰克却因为一桩抢劫案而坐了牢,从此荒废了音乐事业。出狱那天,艾伍德前来接风,二人兴致勃勃前往自幼长大的孤儿院探望玛丽修女,却被告知这个孤儿院已经欠了一大笔税款面临关门,除非有人能在十一天内凑齐5000美元。
  二人对孤儿院情比金坚,怎能眼睁睁看着孤儿院“沦陷”?哥俩从长计议,决定重拾自己的音乐事业,为孤儿院巡演揍钱。于是,以前的乐队又重新组合起来,热热闹闹的一大队人在舞台上开始了磕磕绊绊的演出。凑钱还是其次的问题,他们得先解决意外碰到的一大堆麻烦事,比如警察的误会、黑帮的追杀……挽救孤儿院的动力让他们所向披靡,魅力四射,同时也找回了他们自己的音乐梦想。

DISC INFO:

Disc Title:     The Blues Brothers
Disc Label:    The.Blues.Brothers.1980.2in1.UHD.Blu-ray.2160p.HEVC.DTS-X.MA.7.1
Disc Size:      95,219,068,278 bytes
Protection:     AACS2
Extras:         Ultra HD, BD-Java
BDInfo:         0.7.5.5

PLAYLIST REPORT:

Name:                   00801.MPLS
Length:                 2:27:44.605 (h:m:s.ms)
Size:                   53,209,742,208 bytes
Total Bitrate:          48.02 Mbps

(*) Indicates included stream hidden by this playlist.

VIDEO:

Codec                   Bitrate             Description     
-----                   -------             -----------     
MPEG-H HEVC Video       37955 kbps          2160p / 23.976 fps / 16:9 / Main 10 @ Level 5.1 @ High / 10 bits / HDR10 / BT.2020

AUDIO:

Codec                           Language        Bitrate         Description     
-----                           --------        -------         -----------     
DTS:X Master Audio              English         6540 kbps       7.1 / 48 kHz /  6540 kbps / 24-bit (DTS Core: 5.1 / 48 kHz /  1509 kbps / 24-bit)
* DTS Audio                     French          768 kbps        5.1 / 48 kHz /   768 kbps / 24-bit

SUBTITLES:

Codec                           Language        Bitrate         Description     
-----                           --------        -------         -----------     
Presentation Graphics           English         32.946 kbps                     
Presentation Graphics           French          22.471 kbps                     
Presentation Graphics           Spanish         26.593 kbps                     
Presentation Graphics           Danish          25.815 kbps                     
Presentation Graphics           Finnish         26.152 kbps                     
Presentation Graphics           Norwegian       24.058 kbps                     
Presentation Graphics           Swedish         25.114 kbps                     
Presentation Graphics           Hindi           23.168 kbps                     
Presentation Graphics           Chinese         26.791 kbps   简体中文                     
Presentation Graphics           Chinese         26.471 kbps   繁体中文                  
Presentation Graphics           Chinese         52.655 kbps   简英双语                  
Presentation Graphics           Chinese         52.315 kbps   繁英双语                 
* Presentation Graphics         French          0.310 kbps                     

FILES:

Name            Time In         Length          Size            Total Bitrate   
----            -------         ------          ----            -------------   
00156.M2TS      0:00:00.000     0:06:07.533     2,129,150,208   46,334         
00132.M2TS      0:06:07.533     0:06:20.588     2,322,961,920   48,818         
00286.M2TS      0:12:28.122     0:16:27.861     5,973,369,216   48,370         
00134.M2TS      0:28:55.984     0:02:54.090     1,039,103,232   47,727         
00287.M2TS      0:31:50.074     0:17:37.556     6,205,804,416   46,941         
00136.M2TS      0:49:27.631     0:05:29.829     1,929,620,544   46,791         
00288.M2TS      0:54:57.460     0:06:03.279     2,186,824,704   48,146         
00138.M2TS      1:01:00.740     0:05:27.618     2,009,701,056   49,062         
00289.M2TS      1:06:28.359     0:00:59.559     347,505,216     46,611         
00140.M2TS      1:07:27.918     0:09:02.208     3,245,461,440   47,878         
00290.M2TS      1:16:30.127     0:08:58.246     3,281,142,912   48,760         
00142.M2TS      1:25:28.373     0:05:07.473     1,798,785,792   46,789         
00291.M2TS      1:30:35.846     0:02:09.045     780,725,952     48,369         
00144.M2TS      1:32:44.892     0:02:35.113     909,447,168     46,880         
00292.M2TS      1:35:20.005     0:01:37.180     567,092,736     46,644         
00146.M2TS      1:36:57.186     0:02:14.801     785,596,416     46,594         
00093.M2TS      1:39:11.987     0:18:47.626     6,952,681,536   49,322         
00148.M2TS      1:57:59.614     0:02:14.968     813,752,448     48,204         
00294.M2TS      2:00:14.582     0:05:27.869     1,949,952,960   47,567         
00150.M2TS      2:05:42.451     0:03:05.351     1,078,730,880   46,538         
00295.M2TS      2:08:47.803     0:03:01.014     1,071,089,664   47,315         
00152.M2TS      2:11:48.817     0:02:44.289     948,105,024     46,144         
00296.M2TS      2:14:33.106     0:01:25.168     494,152,704     46,371         
00154.M2TS      2:15:58.274     0:01:30.548     525,295,296     46,367         
00297.M2TS      2:17:28.823     0:10:15.781     3,863,688,768   50,189


DISC INFO:

Disc Title:     The Blues Brothers
Disc Label:   The.Blues.Brothers.1980.2in1.UHD.Blu-ray.2160p.HEVC.DTS-X.MA.7.1
Disc Size:      95,219,068,278 bytes
Protection:     AACS2
Extras:         Ultra HD, BD-Java
BDInfo:         0.7.5.5

PLAYLIST REPORT:

Name:                   00800.MPLS
Length:                 2:12:48.335 (h:m:s.ms)
Size:                   47,812,198,848 bytes
Total Bitrate:          48.00 Mbps

VIDEO:

Codec                   Bitrate             Description     
-----                   -------             -----------     
MPEG-H HEVC Video       37955 kbps          2160p / 23.976 fps / 16:9 / Main 10 @ Level 5.1 @ High / 10 bits / HDR10 / BT.2020

AUDIO:

Codec                           Language        Bitrate         Description     
-----                           --------        -------         -----------     
DTS:X Master Audio              English         6507 kbps       7.1 / 48 kHz /  6507 kbps / 24-bit (DTS Core: 5.1 / 48 kHz /  1509 kbps / 24-bit)
DTS Audio                       French          768 kbps        5.1 / 48 kHz /   768 kbps / 24-bit

SUBTITLES:

Codec                           Language        Bitrate         Description     
-----                           --------        -------         -----------     
Presentation Graphics           English         34.092 kbps
Presentation Graphics           Chinese         27.746 kbps   简体中文                       
Presentation Graphics           French          23.159 kbps                     
Presentation Graphics           Spanish         27.837 kbps
Presentation Graphics           Chinese         54.469 kbps   简英双语                     
Presentation Graphics           Danish          26.791 kbps                     
Presentation Graphics           Finnish         27.127 kbps                     
Presentation Graphics           Norwegian       24.965 kbps                     
Presentation Graphics           Swedish         26.092 kbps                     
Presentation Graphics           Hindi           22.951 kbps                     
Presentation Graphics           Chinese         27.415 kbps   繁体中文                  
Presentation Graphics           French          0.729 kbps                     
Presentation Graphics           Chinese         54.116 kbps   繁英双语

FILES:

Name            Time In         Length          Size            Total Bitrate   
----            -------         ------          ----            -------------   
00131.M2TS      0:00:00.000     0:05:29.370     1,911,290,112   46,411         
00132.M2TS      0:05:29.370     0:06:20.588     2,322,961,920   48,818         
00133.M2TS      0:11:49.959     0:14:43.090     5,330,198,784   48,282         
00134.M2TS      0:26:33.049     0:02:54.090     1,039,103,232   47,727         
00135.M2TS      0:29:27.140     0:12:39.091     4,447,336,128   46,865         
00136.M2TS      0:42:06.232     0:05:29.829     1,929,620,544   46,791         
00137.M2TS      0:47:36.061     0:04:12.585     1,504,688,448   47,641         
00138.M2TS      0:51:48.647     0:05:27.618     2,009,701,056   49,062         
00139.M2TS      0:57:16.266     0:01:02.062     361,414,848     46,525         
00140.M2TS      0:58:18.328     0:09:02.208     3,245,461,440   47,878         
00141.M2TS      1:07:20.536     0:08:09.530     2,987,012,160   48,806         
00142.M2TS      1:15:30.067     0:05:07.473     1,798,785,792   46,789         
00143.M2TS      1:20:37.540     0:01:55.740     697,409,856     48,170         
00144.M2TS      1:22:33.281     0:02:35.113     909,447,168     46,880         
00145.M2TS      1:25:08.394     0:01:27.337     509,655,744     46,639         
00146.M2TS      1:26:35.732     0:02:14.801     785,596,416     46,594         
00094.M2TS      1:28:50.533     0:15:26.216     5,720,882,112   49,408         
00148.M2TS      1:44:16.750     0:02:14.968     813,752,448     48,204         
00149.M2TS      1:46:31.718     0:05:00.508     1,787,622,144   47,576         
00150.M2TS      1:51:32.227     0:03:05.351     1,078,730,880   46,538         
00151.M2TS      1:54:37.578     0:02:54.007     1,029,806,976   47,323         
00152.M2TS      1:57:31.586     0:02:44.289     948,105,024     46,144         
00153.M2TS      2:00:15.875     0:01:20.955     471,504,768     46,546         
00154.M2TS      2:01:36.831     0:01:30.548     525,295,296     46,367         
00155.M2TS      2:03:07.379     0:09:40.955     3,646,815,552   50,211

本帖子中包含更多资源

您需要 登录 才可以下载或查看,没有帐号?立即注册

x
回复

使用道具 举报

0

主题

66

帖子

336

积分

中级会员

Rank: 3Rank: 3

积分
336
发表于 2020-6-2 13:38:08 | 显示全部楼层
感谢楼主分享
回复

使用道具 举报

0

主题

139

帖子

864

积分

高级会员

Rank: 4

积分
864
发表于 2020-6-2 14:18:16 | 显示全部楼层
感谢楼主分享
回复

使用道具 举报

0

主题

306

帖子

1552

积分

金牌会员

Rank: 6Rank: 6

积分
1552
发表于 2020-6-2 15:00:03 | 显示全部楼层
感谢楼主分享
回复

使用道具 举报

0

主题

481

帖子

3950

积分

论坛元老

Rank: 8Rank: 8

积分
3950
发表于 2020-6-2 17:26:08 | 显示全部楼层
感谢楼主分享!!!
回复

使用道具 举报

0

主题

464

帖子

2093

积分

金牌会员

Rank: 6Rank: 6

积分
2093
发表于 2020-6-2 20:55:23 | 显示全部楼层
感谢楼主分享高清影片
回复

使用道具 举报

0

主题

116

帖子

689

积分

高级会员

Rank: 4

积分
689
发表于 2020-6-2 22:48:47 | 显示全部楼层
感谢分享!
回复

使用道具 举报

0

主题

548

帖子

4003

积分

论坛元老

Rank: 8Rank: 8

积分
4003
发表于 2020-6-3 05:18:10 | 显示全部楼层
感谢楼主分享
回复

使用道具 举报

0

主题

95

帖子

690

积分

高级会员

Rank: 4

积分
690
发表于 2020-6-3 10:09:26 | 显示全部楼层
感谢分享
回复

使用道具 举报

0

主题

548

帖子

4003

积分

论坛元老

Rank: 8Rank: 8

积分
4003
发表于 2020-6-4 05:19:07 | 显示全部楼层
感谢分享
回复

使用道具 举报

您需要登录后才可以回帖 登录 | 立即注册

本版积分规则

QQ|Archiver|手机版|小黑屋|原盘天堂 盘盘多 点击这里给我发消息

GMT+8, 2020-7-15 09:09 , Processed in 0.067835 second(s), 25 queries .

Powered by Discuz! X3.4

Copyright © 2001-2020, Tencent Cloud.

快速回复 返回顶部 返回列表