请选择 进入手机版 | 继续访问电脑版
本站Q群713428235【盘盘多】已满,请新会员加原盘天堂新官方QQ群709708625【好多盘】,验证信息填写您在论坛的会员名,不填会员名的无法入群哈,进群后修改您的群名片名字为您在论坛的会员名,请务必修改,否则群成员多了不知道您是哪个会员。

原盘天堂

 找回密码
 立即注册
京东商城当当华为商城名牌时尚折扣网,一个新型的网上购物平台,我们每周为您精选3~4个国际知名品牌,商品折扣低至2折限时限量售卖,商品囊括时装、护肤品、箱包、皮具、配饰、香水等等,琳琅满目。亿格瑞A10硬盘播放器 苏宁易购
查看: 132|回复: 1

4k蓝光原盘bdmv 48小时闯天关 英语原版 another.48.hrs.1990.2160p.bluray.hevc.truehd.5.1[58.03 GB]

[复制链接]

7423

主题

8549

帖子

135万

积分

管理员

Rank: 18Rank: 18Rank: 18Rank: 18Rank: 18

积分
1353705
发表于 2023-1-7 08:37:58 | 显示全部楼层 |阅读模式








◎译  名 48小时闯天关/四十八小时2/新48小时
◎片  名 Another 48 Hrs.
◎年  代 1990
◎产  地 美国
◎类  别 剧情/喜剧/动作/惊悚/犯罪
◎语  言 英语
◎上映日期 1990-06-08
◎IMDb链接 https://www.imdb.com/title/tt0099044/
◎豆瓣评分 6.0/10 from 208 users
◎豆瓣链接 https://douban.com/subject/1296349/
◎片  长 93 分钟
◎导  演 沃尔特·希尔 Walter Hill
◎编  剧 杰布·斯图尔特 Jeb Stuart / 斯蒂芬·E.德·索萨 Steven E. de Souza / 拉里·格罗斯 Larry Gross / 约翰·法沙诺 John Fasano / 罗杰·斯波蒂斯伍德 Roger Spottiswoode / 沃尔特·希尔 Walter Hill / 艾迪·墨菲 Eddie Murphy
◎主  演 艾迪·墨菲 Eddie Murphy
      尼克·诺特 Nick Nolte
      布里翁·詹姆斯 Brion James
      谢娜·奥勃良 Shauna O'Brien
      Dawn Robinson Dawn Robinson
      Edgar Small Edgar Small
      Michael Williams Michael Williams
      Edward Walsh Edward Walsh
      佩姬·梁 Page Leong
      布赖特·詹宁斯 Brent Jennings
      阿兰·格拉夫 Allan Graf
      埃德·欧罗斯 Ed O'Ross
      菲利斯·奥兰迪 Felice Orlandi
      小猫娜提雅维达 Kitten Natividad
      Hoke Howell Hoke Howell
      提莎·坎贝尔-马丁 Tisha Campbell-Martin
      丹尼斯海顿 Dennis Hayden
      凯文·泰德 Kevin Tighe
      安德鲁·迪沃夫 Andrew Divoff
      伯尼·凯西 Bernie Casey
      Alisa Christensen Alisa Christensen
      维克托·勃兰特 Victor Brandt
      特德·马克兰德 Ted Markland
      Benjamin Lum Benjamin Lum
      Russ McCubbin Russ McCubbin
      弗兰克·麦克雷 Frank McRae
      Richard Lee-Sung Richard Lee-Sung
      John Del Regno John Del Regno
      南茜·艾薇哈德 Nancy Everhard
      Deirdre Fitzpatrick Deirdre Fitzpatrick

◎简  介

  
  白人警探尼克.诺尔蒂为了追查神秘的毒贩"卖冰人",不得不找当年的黑人罪犯搭档埃迪.墨菲协助提供线索。埃迪因有一笔巨款仍寄存在尼克手上,只好不情不愿地加以帮忙,但二人在合作过程中发生多起冲突。最后,他们还是发现了卖冰人"的真正身份,原来是警察中人。全片从编剧的情节安排,到导演的动作设计,再到演员的卖力演出,处处可见台前幕后工作人员尽力使本片显得热闹好看的努力,不过最终还是摆脱不了既有的框架,只是在公式化之中转圈圈,甚至埃迪的惹笑伎俩也显得有点技穷了。


DISC INFO:

Disc Title:     Another.48.Hrs.1990.COMPLETE.UHD.BLURAY-MAXAGAZ
Disc Size:      62,306,545,186 bytes
Protection:     AACS2
Extras:         Ultra HD, BD-Java
BDInfo:         0.7.5.9 (compatible layout created by DVDFab 12.0.9.2)

PLAYLIST REPORT:

Name:                   00100.MPLS  
Length:                 1:35:22.967 (h:m:s.ms)
Size:                   61,818,310,656 bytes
Total Bitrate:          86.41 Mbps

(*) Indicates included stream hidden by this playlist.

VIDEO:

Codec                   Bitrate             Description   
-----                   -------             -----------   
MPEG-H HEVC Video       60797 kbps          2160p / 23.976 fps / 16:9 / Main 10 @ Level 5.1 @ High / 4:2:0 / 10 bits / 1000nits / HDR10 / BT.2020
* MPEG-H HEVC Video     15267 kbps (20.07%) 1080p / 23.976 fps / 16:9 / Main 10 @ Level 5.1 @ High / 4:2:0 / 10 bits / 1000nits / Dolby Vision FEL / BT.2020

AUDIO:

Codec                           Language        Bitrate         Description   
-----                           --------        -------         -----------   
Dolby TrueHD Audio              English         4227 kbps       5.1 / 48 kHz / 3587 kbps / 24-bit (AC3 Core: 5.1 / 48 kHz / 640 kbps)
Dolby Digital Audio             German          224 kbps        2.0 / 48 kHz / 224 kbps
Dolby Digital Audio             Spanish         224 kbps        2.0 / 48 kHz / 224 kbps
Dolby Digital Audio             French          224 kbps        2.0 / 48 kHz / 224 kbps
Dolby Digital Audio             Italian         224 kbps        2.0 / 48 kHz / 224 kbps
Dolby Digital Audio             Japanese        224 kbps        2.0 / 48 kHz / 224 kbps

SUBTITLES:

Codec                           Language        Bitrate         Description   
-----                           --------        -------         -----------   
Presentation Graphics           English         36.851 kbps                    
Presentation Graphics           English         44.852 kbps                    
Presentation Graphics           Danish          21.289 kbps                    
Presentation Graphics           German          24.772 kbps                    
Presentation Graphics           Spanish         26.822 kbps                    
Presentation Graphics           Spanish         24.025 kbps                    
Presentation Graphics           French          24.808 kbps                    
Presentation Graphics           Italian         28.302 kbps                    
Presentation Graphics           Japanese        16.375 kbps                    
Presentation Graphics           Dutch           22.702 kbps                    
Presentation Graphics           Norwegian       22.132 kbps                    
Presentation Graphics           Finnish         24.757 kbps                    
Presentation Graphics           Swedish         22.056 kbps                    
Presentation Graphics           German          0.087 kbps      

Video
ID : 1
ID in the original source medium : 4113 (0x1011)
Format : HEVC
Format/Info : High Efficiency Video Coding
Format profile : Main [email protected]@High
HDR format : Dolby Vision, Version 1.0, dvhe.07.06, BL+EL+RPU, Blu-ray compatible / SMPTE ST 2086, HDR10 compatible
Codec ID : V_MPEGH/ISO/HEVC
Duration : 1 h 35 min
Bit rate : 76.1 Mb/s
Width : 3 840 pixels
Height : 2 160 pixels
Display aspect ratio : 16:9
Frame rate mode : Constant
Frame rate : 23.976 (24000/1001) FPS
Color space : YUV
Chroma subsampling : 4:2:0 (Type 2)
Bit depth : 10 bits
Bits/(Pixel*Frame) : 0.382
Stream size : 50.7 GiB (89%)
Language : English
Default : No
Forced : No
Color range : Limited
Color primaries : BT.2020
Transfer characteristics : PQ
Matrix coefficients : BT.2020 non-constant
Mastering display color primaries : Display P3
Mastering display luminance : min: 0.0001 cd/m2, max: 1000 cd/m2
Original source medium : Blu-ray

Audio #1
ID : 2
ID in the original source medium : 4352 (0x1100)
Format : MLP FBA
Format/Info : Meridian Lossless Packing FBA
Commercial name : Dolby TrueHD
Codec ID : A_TRUEHD
Duration : 1 h 35 min
Bit rate mode : Variable
Bit rate : 3 587 kb/s
Maximum bit rate : 4 878 kb/s
Channel(s) : 6 channels
Channel layout : L R C LFE Ls Rs
Sampling rate : 48.0 kHz
Frame rate : 1 200.000 FPS (40 SPF)
Bit depth : 24 bits
Compression mode : Lossless
Stream size : 2.39 GiB (4%)
Title : TrueHD 5.1
Language : English
Default : Yes
Forced : No
Original source medium : Blu-ray

Audio #2
ID : 3
Format : DTS XLL
Format/Info : Digital Theater Systems
Commercial name : DTS-HD Master Audio
Codec ID : A_DTS
Duration : 1 h 35 min
Bit rate mode : Variable
Bit rate : 4 070 kb/s
Channel(s) : 6 channels
Channel layout : C L R Ls Rs LFE
Sampling rate : 48.0 kHz
Frame rate : 93.750 FPS (512 SPF)
Bit depth : 24 bits
Compression mode : Lossless
Stream size : 2.71 GiB (5%)
Title : DTS-HD MA 5.1
Language : English
Default : No
Forced : No

Audio #3
ID : 4
ID in the original source medium : 4352 (0x1100)
Format : AC-3
Format/Info : Audio Coding 3
Commercial name : Dolby Digital
Codec ID : A_AC3
Duration : 1 h 35 min
Bit rate mode : Constant
Bit rate : 640 kb/s
Channel(s) : 6 channels
Channel layout : L R C LFE Ls Rs
Sampling rate : 48.0 kHz
Frame rate : 31.250 FPS (1536 SPF)
Compression mode : Lossy
Stream size : 437 MiB (1%)
Title : DD 5.1
Language : English
Service kind : Complete Main
Default : No
Forced : No
Original source medium : Blu-ray

Audio #4
ID : 5
ID in the original source medium : 4353 (0x1101)
Format : AC-3
Format/Info : Audio Coding 3
Commercial name : Dolby Digital
Codec ID : A_AC3
Duration : 1 h 35 min
Bit rate mode : Constant
Bit rate : 224 kb/s
Channel(s) : 2 channels
Channel layout : L R
Sampling rate : 48.0 kHz
Frame rate : 31.250 FPS (1536 SPF)
Compression mode : Lossy
Stream size : 153 MiB (0%)
Title : DD 2.0
Language : German
Service kind : Complete Main
Default : No
Forced : No
Original source medium : Blu-ray

Audio #5
ID : 6
ID in the original source medium : 4354 (0x1102)
Format : AC-3
Format/Info : Audio Coding 3
Commercial name : Dolby Digital
Codec ID : A_AC3
Duration : 1 h 35 min
Bit rate mode : Constant
Bit rate : 224 kb/s
Channel(s) : 2 channels
Channel layout : L R
Sampling rate : 48.0 kHz
Frame rate : 31.250 FPS (1536 SPF)
Compression mode : Lossy
Stream size : 153 MiB (0%)
Title : DD 2.0
Language : Spanish
Service kind : Complete Main
Default : No
Forced : No
Original source medium : Blu-ray

Audio #6
ID : 7
ID in the original source medium : 4355 (0x1103)
Format : AC-3
Format/Info : Audio Coding 3
Commercial name : Dolby Digital
Codec ID : A_AC3
Duration : 1 h 35 min
Bit rate mode : Constant
Bit rate : 224 kb/s
Channel(s) : 2 channels
Channel layout : L R
Sampling rate : 48.0 kHz
Frame rate : 31.250 FPS (1536 SPF)
Compression mode : Lossy
Stream size : 153 MiB (0%)
Title : DD 2.0
Language : French
Service kind : Complete Main
Default : No
Forced : No
Original source medium : Blu-ray

Audio #7
ID : 8
ID in the original source medium : 4356 (0x1104)
Format : AC-3
Format/Info : Audio Coding 3
Commercial name : Dolby Digital
Codec ID : A_AC3
Duration : 1 h 35 min
Bit rate mode : Constant
Bit rate : 224 kb/s
Channel(s) : 2 channels
Channel layout : L R
Sampling rate : 48.0 kHz
Frame rate : 31.250 FPS (1536 SPF)
Compression mode : Lossy
Stream size : 153 MiB (0%)
Title : DD 2.0
Language : Italian
Service kind : Complete Main
Default : No
Forced : No
Original source medium : Blu-ray

Audio #8
ID : 9
ID in the original source medium : 4357 (0x1105)
Format : AC-3
Format/Info : Audio Coding 3
Commercial name : Dolby Digital
Codec ID : A_AC3
Duration : 1 h 35 min
Bit rate mode : Constant
Bit rate : 224 kb/s
Channel(s) : 2 channels
Channel layout : L R
Sampling rate : 48.0 kHz
Frame rate : 31.250 FPS (1536 SPF)
Compression mode : Lossy
Stream size : 153 MiB (0%)
Title : DD 2.0
Language : Japanese
Service kind : Complete Main
Default : No
Forced : No
Original source medium : Blu-ray

Text #1
ID : 10
Format : UTF-8
Codec ID : S_TEXT/UTF8
Codec ID/Info : UTF-8 Plain Text
Duration : 1 h 31 min
Bit rate : 78 b/s
Frame rate : 0.289 FPS
Count of elements : 1591
Stream size : 52.9 KiB (0%)
Language : English
Default : Yes
Forced : No

Text #2
ID : 11
Format : UTF-8
Codec ID : S_TEXT/UTF8
Codec ID/Info : UTF-8 Plain Text
Duration : 1 h 35 min
Bit rate : 82 b/s
Frame rate : 0.310 FPS
Count of elements : 1769
Stream size : 57.2 KiB (0%)
Title : SDH
Language : English
Default : No
Forced : No

Text #3
ID : 12
ID in the original source medium : 4768 (0x12A0)
Format : PGS
Muxing mode : zlib
Codec ID : S_HDMV/PGS
Codec ID/Info : Picture based subtitle format used on BDs/HD-DVDs
Duration : 1 h 27 min
Bit rate : 40.0 kb/s
Frame rate : 0.466 FPS
Count of elements : 2458
Stream size : 25.1 MiB (0%)
Language : English
Default : No
Forced : No
Original source medium : Blu-ray

Text #4
ID : 13
ID in the original source medium : 4769 (0x12A1)
Format : PGS
Muxing mode : zlib
Codec ID : S_HDMV/PGS
Codec ID/Info : Picture based subtitle format used on BDs/HD-DVDs
Duration : 1 h 35 min
Bit rate : 44.9 kb/s
Frame rate : 0.373 FPS
Count of elements : 2130
Stream size : 30.6 MiB (0%)
Language : English
Default : No
Forced : No
Original source medium : Blu-ray

Text #5
ID : 14
ID in the original source medium : 4770 (0x12A2)
Format : PGS
Muxing mode : zlib
Codec ID : S_HDMV/PGS
Codec ID/Info : Picture based subtitle format used on BDs/HD-DVDs
Duration : 1 h 27 min
Bit rate : 23.1 kb/s
Frame rate : 0.273 FPS
Count of elements : 1442
Stream size : 14.5 MiB (0%)
Language : Danish
Default : No
Forced : No
Original source medium : Blu-ray

Text #6
ID : 15
ID in the original source medium : 4771 (0x12A3)
Format : PGS
Muxing mode : zlib
Codec ID : S_HDMV/PGS
Codec ID/Info : Picture based subtitle format used on BDs/HD-DVDs
Duration : 1 h 27 min
Bit rate : 26.9 kb/s
Frame rate : 0.283 FPS
Count of elements : 1494
Stream size : 16.9 MiB (0%)
Language : German
Default : No
Forced : No
Original source medium : Blu-ray

Text #7
ID : 16
ID in the original source medium : 4772 (0x12A4)
Format : PGS
Muxing mode : zlib
Codec ID : S_HDMV/PGS
Codec ID/Info : Picture based subtitle format used on BDs/HD-DVDs
Duration : 1 h 30 min
Bit rate : 28.3 kb/s
Frame rate : 0.458 FPS
Count of elements : 2486
Stream size : 18.3 MiB (0%)
Language : Spanish
Default : No
Forced : No
Original source medium : Blu-ray

Text #8
ID : 17
ID in the original source medium : 4773 (0x12A5)
Format : PGS
Muxing mode : zlib
Codec ID : S_HDMV/PGS
Codec ID/Info : Picture based subtitle format used on BDs/HD-DVDs
Duration : 1 h 30 min
Bit rate : 25.3 kb/s
Frame rate : 0.247 FPS
Count of elements : 1342
Stream size : 16.4 MiB (0%)
Language : Spanish
Default : No
Forced : No
Original source medium : Blu-ray

Text #9
ID : 18
ID in the original source medium : 4774 (0x12A6)
Format : PGS
Muxing mode : zlib
Codec ID : S_HDMV/PGS
Codec ID/Info : Picture based subtitle format used on BDs/HD-DVDs
Duration : 1 h 27 min
Bit rate : 26.9 kb/s
Frame rate : 0.300 FPS
Count of elements : 1584
Stream size : 16.9 MiB (0%)
Language : French
Default : No
Forced : No
Original source medium : Blu-ray

Text #10
ID : 19
ID in the original source medium : 4775 (0x12A7)
Format : PGS
Muxing mode : zlib
Codec ID : S_HDMV/PGS
Codec ID/Info : Picture based subtitle format used on BDs/HD-DVDs
Duration : 1 h 28 min
Bit rate : 30.6 kb/s
Frame rate : 0.470 FPS
Count of elements : 2488
Stream size : 19.3 MiB (0%)
Language : Italian
Default : No
Forced : No
Original source medium : Blu-ray

Text #11
ID : 20
ID in the original source medium : 4776 (0x12A8)
Format : PGS
Muxing mode : zlib
Codec ID : S_HDMV/PGS
Codec ID/Info : Picture based subtitle format used on BDs/HD-DVDs
Duration : 1 h 27 min
Bit rate : 17.8 kb/s
Frame rate : 0.348 FPS
Count of elements : 1836
Stream size : 11.2 MiB (0%)
Language : Japanese
Default : No
Forced : No
Original source medium : Blu-ray

Text #12
ID : 21
ID in the original source medium : 4777 (0x12A9)
Format : PGS
Muxing mode : zlib
Codec ID : S_HDMV/PGS
Codec ID/Info : Picture based subtitle format used on BDs/HD-DVDs
Duration : 1 h 27 min
Bit rate : 24.6 kb/s
Frame rate : 0.248 FPS
Count of elements : 1310
Stream size : 15.5 MiB (0%)
Language : Dutch
Default : No
Forced : No
Original source medium : Blu-ray

Text #13
ID : 22
ID in the original source medium : 4778 (0x12AA)
Format : PGS
Muxing mode : zlib
Codec ID : S_HDMV/PGS
Codec ID/Info : Picture based subtitle format used on BDs/HD-DVDs
Duration : 1 h 27 min
Bit rate : 24.0 kb/s
Frame rate : 0.261 FPS
Count of elements : 1376
Stream size : 15.1 MiB (0%)
Language : Norwegian
Default : No
Forced : No
Original source medium : Blu-ray

Text #14
ID : 23
ID in the original source medium : 4779 (0x12AB)
Format : PGS
Muxing mode : zlib
Codec ID : S_HDMV/PGS
Codec ID/Info : Picture based subtitle format used on BDs/HD-DVDs
Duration : 1 h 27 min
Bit rate : 26.9 kb/s
Frame rate : 0.287 FPS
Count of elements : 1514
Stream size : 16.9 MiB (0%)
Language : Finnish
Default : No
Forced : No
Original source medium : Blu-ray

Text #15
ID : 24
ID in the original source medium : 4780 (0x12AC)
Format : PGS
Muxing mode : zlib
Codec ID : S_HDMV/PGS
Codec ID/Info : Picture based subtitle format used on BDs/HD-DVDs
Duration : 1 h 27 min
Bit rate : 23.9 kb/s
Frame rate : 0.290 FPS
Count of elements : 1530
Stream size : 15.0 MiB (0%)
Language : Swedish
Default : No
Forced : No
Original source medium : Blu-ray

Text #16
ID : 25
ID in the original source medium : 4781 (0x12AD)
Format : PGS
Muxing mode : zlib
Codec ID : S_HDMV/PGS
Codec ID/Info : Picture based subtitle format used on BDs/HD-DVDs
Duration : 1 h 19 min
Bit rate : 104 b/s
Frame rate : 0.002 FPS
Count of elements : 10
Stream size : 60.9 KiB (0%)
Language : German
Default : No
Forced : No
Original source medium : Blu-ray

Menu
00:00:00.000 : en:Chapter 01
00:07:45.965 : en:Chapter 02
00:13:22.301 : en:Chapter 03
00:20:26.725 : en:Chapter 04
00:24:25.338 : en:Chapter 05
00:32:47.256 : en:Chapter 06
00:42:21.413 : en:Chapter 07
00:52:41.825 : en:Chapter 08
00:57:38.413 : en:Chapter 09
01:07:21.162 : en:Chapter 10
01:11:11.433 : en:Chapter 11
01:17:12.210 : en:Chapter 12
01:21:49.529 : en:Chapter 13
01:29:34.702 : en:Chapter 14
01:32:24.580 : en:Chapter 15

本帖子中包含更多资源

您需要 登录 才可以下载或查看,没有帐号?立即注册

x
回复

使用道具 举报

0

主题

3

帖子

11

积分

新手上路

Rank: 1

积分
11
发表于 3 小时前 | 显示全部楼层

★〓出售各个城市兼职、楼风、丝足、桑拿、良家 少妇 资料QQ776775829

洗浴 站街 学生妹,少妇,
直接联系小姐本人,安全方便

每月更新一次。保证质量
有需要的朋友请加

QQ 776 775 829
QQ 776 775 829
QQ 776 775 829

加好友请注明城市






回复

使用道具 举报

您需要登录后才可以回帖 登录 | 立即注册

本版积分规则

QQ|Archiver|手机版|小黑屋|原盘天堂 好多盘 点击这里给我发消息

GMT+8, 2023-1-29 11:14 , Processed in 0.043580 second(s), 24 queries .

Powered by Discuz! X3.4

Copyright © 2001-2021, Tencent Cloud.

快速回复 返回顶部 返回列表