请选择 进入手机版 | 继续访问电脑版
本站Q群713428235【盘盘多】已满,请新会员加原盘天堂新官方QQ群709708625【好多盘】,验证信息填写您在论坛的会员名,不填会员名的无法入群哈,进群后修改您的群名片名字为您在论坛的会员名,请务必修改,否则群成员多了不知道您是哪个会员。

原盘天堂

 找回密码
 立即注册
京东商城当当华为商城名牌时尚折扣网,一个新型的网上购物平台,我们每周为您精选3~4个国际知名品牌,商品折扣低至2折限时限量售卖,商品囊括时装、护肤品、箱包、皮具、配饰、香水等等,琳琅满目。亿格瑞A10硬盘播放器 苏宁易购
查看: 80|回复: 1

4k蓝光原盘bdmv 48小时 英语原版 48.hrs.1982.2160p.bluray.hevc.truehd.5.1[55.91 GB]

[复制链接]

7423

主题

8549

帖子

135万

积分

管理员

Rank: 18Rank: 18Rank: 18Rank: 18Rank: 18

积分
1353705
发表于 2023-1-7 08:27:31 | 显示全部楼层 |阅读模式








◎译  名 48小时/四十八小时/特赦48小时
◎片  名 48 Hrs.
◎年  代 1982
◎产  地 美国
◎类  别 剧情/喜剧/动作/惊悚/犯罪
◎语  言 英语
◎上映日期 1982-12-08(美国)
◎IMDb链接 https://www.imdb.com/title/tt0083511/
◎豆瓣评分 6.5/10 from 448 users
◎豆瓣链接 https://douban.com/subject/1301780/
◎片  长 96 分钟
◎导  演 沃尔特·希尔 Walter Hill
◎编  剧 罗杰·斯波蒂斯伍德 Roger Spottiswoode / 沃尔特·希尔 Walter Hill / 拉里·格罗斯 Larry Gross / 斯蒂芬·E.德·索萨 Steven E. de Souza
◎主  演 尼克·诺特 Nick Nolte
      艾迪·墨菲 Eddie Murphy
      安妮特·奥图 Annette O'Toole
      弗兰克·麦克雷 Frank McRae
      詹姆斯·瑞马尔 James Remar
      大卫·帕特里克·凯利 David Patrick Kelly
      索尼·兰哈姆 Sonny Landham
      布里翁·詹姆斯 Brion James
      Kerry Sherman Kerry Sherman
      乔纳森·班克斯 Jonathan Banks
      詹姆斯·基恩 James Keane
      Margot Rose Margot Rose
      丹尼斯·克罗斯比 Denise Crosby
      Olivia Brown Olivia Brown
      Todd Allen Todd Allen
      Bill Dearth Bill Dearth
      内德·道德 Ned Dowd
      吉姆·海尼 Jim Haynie
      杰克·唐蒂博 Jack Thibeau
      桑迪·马丁 Sandy Martin
      Matt Landers Matt Landers
      皮特·杰森 Peter Jason
      克里斯·马尔基 Chris Mulkey
      马塞利诺·桑切斯 Marcelino Sánchez
      Bennie E. Dobbins Bennie E. Dobbins
      Begonya Plaza Begonya Plaza
      罗伊德·卡特莱特 Loyd Catlett
      里德·克鲁克香克斯 Reid Cruickshanks
      R.D. Call R.D. Call
      布伦达·维纳斯 Brenda Venus
      约翰·丹尼斯·约翰斯顿 John Dennis Johnston
      Jack Lightsy Jack Lightsy
      Luis Contreras Luis Contreras
      欧拉·蕾 Ola Ray
      Fritz Ford Fritz Ford
      Kevin O'Neal Kevin O'Neal
      Walter Scott Walter Scott
      John Hauk John Hauk

◎简  介

  
  杰克凯斯为三藩市一名资深警探,从21岁加入警界以来一直未能有所表现。雷吉汉蒙德为黑人区一名惯犯,从15岁起开始犯案累累。巧的是两人都想力图改变现况,而更巧的是两人竟然在同时间不期而遇,因此引发了一场争斗。
  
  重刑犯艾伯特·刚茨在他的老搭档比利·拜尔的帮助下成功越狱,他们立即杀死了自己的同伙亨利·王,用假名字住进了三藩市的瓦尔登旅馆。年轻干探杰克·盖茨(Nick Nolte饰)郁不得志,酗酒成性。此番受命与同事VanZant 和Algren入住瓦尔登旅馆,调查名叫G. P. Polson的人,不想VanZant 和Algren被艾伯特所害。杰克欲为同事报仇,劝服上司Haden让他独立办案。杰克到监狱探视艾伯特从前的搭档雷吉·汉蒙德(Eddie Murphy饰),以减刑为由,希望雷吉帮助他抓捕艾伯特和比利,雷吉勉强答应,但杰克只能将其带出监狱48小时,更糟...

DISC INFO:

Disc Title:     48.Hrs.1982.COMPLETE.UHD.BLURAY-MAXAGAZ
Disc Size:      60,030,238,291 bytes
Protection:     AACS2
Extras:         Ultra HD, BD-Java
BDInfo:         0.7.5.9 (compatible layout created by DVDFab 12.0.9.2)

PLAYLIST REPORT:

Name:                   00100.MPLS  
Length:                 1:36:35.414 (h:m:s.ms)
Size:                   59,534,548,992 bytes
Total Bitrate:          82.18 Mbps

(*) Indicates included stream hidden by this playlist.

VIDEO:

Codec                   Bitrate             Description   
-----                   -------             -----------   
MPEG-H HEVC Video       57599 kbps          2160p / 23.976 fps / 16:9 / Main 10 @ Level 5.1 @ High / 4:2:0 / 10 bits / 1000nits / HDR10 / BT.2020
* MPEG-H HEVC Video     14473 kbps (20.08%) 1080p / 23.976 fps / 16:9 / Main 10 @ Level 5.1 @ High / 4:2:0 / 10 bits / 1000nits / Dolby Vision FEL / BT.2020

AUDIO:

Codec                           Language        Bitrate         Description   
-----                           --------        -------         -----------   
Dolby TrueHD Audio              English         3877 kbps       5.1 / 48 kHz / 3237 kbps / 24-bit (AC3 Core: 5.1 / 48 kHz / 640 kbps)
Dolby Digital Audio             German          224 kbps        2.0 / 48 kHz / 224 kbps
Dolby Digital Audio             Spanish         224 kbps        2.0 / 48 kHz / 224 kbps
Dolby Digital Audio             Spanish         224 kbps        2.0 / 48 kHz / 224 kbps
Dolby Digital Audio             French          224 kbps        2.0 / 48 kHz / 224 kbps
Dolby Digital Audio             Italian         224 kbps        2.0 / 48 kHz / 224 kbps
Dolby Digital Audio             Japanese        224 kbps        2.0 / 48 kHz / 224 kbps

SUBTITLES:

Codec                           Language        Bitrate         Description   
-----                           --------        -------         -----------   
Presentation Graphics           English         33.587 kbps                    
Presentation Graphics           English         38.604 kbps                    
Presentation Graphics           Danish          19.036 kbps                    
Presentation Graphics           German          25.668 kbps                    
Presentation Graphics           Spanish         23.72 kbps                     
Presentation Graphics           Spanish         24.782 kbps                    
Presentation Graphics           French          28.598 kbps                    
Presentation Graphics           Italian         21.407 kbps                    
Presentation Graphics           Japanese        15.007 kbps                    
Presentation Graphics           Korean          21.428 kbps                    
Presentation Graphics           Dutch           21.964 kbps                    
Presentation Graphics           Norwegian       19.78 kbps                     
Presentation Graphics           Finnish         21.32 kbps                     
Presentation Graphics           Swedish         20.547 kbps                    
Presentation Graphics           Spanish         0.148 kbps                     
Presentation Graphics           Japanese        0.038 kbps   


Video
ID : 1
ID in the original source medium : 4113 (0x1011)
Format : HEVC
Format/Info : High Efficiency Video Coding
Format profile : Main [email protected]@High
HDR format : Dolby Vision, Version 1.0, dvhe.07.06, BL+EL+RPU, Blu-ray compatible / SMPTE ST 2086, HDR10 compatible
Codec ID : V_MPEGH/ISO/HEVC
Duration : 1 h 36 min
Bit rate : 72.1 Mb/s
Width : 3 840 pixels
Height : 2 160 pixels
Display aspect ratio : 16:9
Frame rate mode : Constant
Frame rate : 23.976 (24000/1001) FPS
Color space : YUV
Chroma subsampling : 4:2:0 (Type 2)
Bit depth : 10 bits
Bits/(Pixel*Frame) : 0.362
Stream size : 48.6 GiB (89%)
Language : English
Default : No
Forced : No
Color range : Limited
Color primaries : BT.2020
Transfer characteristics : PQ
Matrix coefficients : BT.2020 non-constant
Mastering display color primaries : Display P3
Mastering display luminance : min: 0.0001 cd/m2, max: 1000 cd/m2
Original source medium : Blu-ray

Audio #1
ID : 2
ID in the original source medium : 4352 (0x1100)
Format : MLP FBA
Format/Info : Meridian Lossless Packing FBA
Commercial name : Dolby TrueHD
Codec ID : A_TRUEHD
Duration : 1 h 36 min
Bit rate mode : Variable
Bit rate : 3 237 kb/s
Maximum bit rate : 4 554 kb/s
Channel(s) : 6 channels
Channel layout : L R C LFE Ls Rs
Sampling rate : 48.0 kHz
Frame rate : 1 200.000 FPS (40 SPF)
Bit depth : 24 bits
Compression mode : Lossless
Stream size : 2.18 GiB (4%)
Title : TrueHD 5.1
Language : English
Default : Yes
Forced : No
Original source medium : Blu-ray

Audio #2
ID : 3
Format : DTS XLL
Format/Info : Digital Theater Systems
Commercial name : DTS-HD Master Audio
Codec ID : A_DTS
Duration : 1 h 36 min
Bit rate mode : Variable
Bit rate : 3 699 kb/s
Channel(s) : 6 channels
Channel layout : C L R Ls Rs LFE
Sampling rate : 48.0 kHz
Frame rate : 93.750 FPS (512 SPF)
Bit depth : 24 bits
Compression mode : Lossless
Stream size : 2.50 GiB (5%)
Title : DTS-HD MA 5.1
Language : English
Default : No
Forced : No

Audio #3
ID : 4
ID in the original source medium : 4352 (0x1100)
Format : AC-3
Format/Info : Audio Coding 3
Commercial name : Dolby Digital
Codec ID : A_AC3
Duration : 1 h 36 min
Bit rate mode : Constant
Bit rate : 640 kb/s
Channel(s) : 6 channels
Channel layout : L R C LFE Ls Rs
Sampling rate : 48.0 kHz
Frame rate : 31.250 FPS (1536 SPF)
Compression mode : Lossy
Stream size : 442 MiB (1%)
Title : DD 5.1
Language : English
Service kind : Complete Main
Default : No
Forced : No
Original source medium : Blu-ray

Audio #4
ID : 5
ID in the original source medium : 4353 (0x1101)
Format : AC-3
Format/Info : Audio Coding 3
Commercial name : Dolby Digital
Codec ID : A_AC3
Duration : 1 h 36 min
Bit rate mode : Constant
Bit rate : 224 kb/s
Channel(s) : 2 channels
Channel layout : L R
Sampling rate : 48.0 kHz
Frame rate : 31.250 FPS (1536 SPF)
Compression mode : Lossy
Stream size : 155 MiB (0%)
Title : DD 2.0
Language : German
Service kind : Complete Main
Default : No
Forced : No
Original source medium : Blu-ray

Audio #5
ID : 6
ID in the original source medium : 4354 (0x1102)
Format : AC-3
Format/Info : Audio Coding 3
Commercial name : Dolby Digital
Codec ID : A_AC3
Duration : 1 h 36 min
Bit rate mode : Constant
Bit rate : 224 kb/s
Channel(s) : 2 channels
Channel layout : L R
Sampling rate : 48.0 kHz
Frame rate : 31.250 FPS (1536 SPF)
Compression mode : Lossy
Stream size : 155 MiB (0%)
Title : DD 2.0
Language : Spanish
Service kind : Complete Main
Default : No
Forced : No
Original source medium : Blu-ray

Audio #6
ID : 7
ID in the original source medium : 4355 (0x1103)
Format : AC-3
Format/Info : Audio Coding 3
Commercial name : Dolby Digital
Codec ID : A_AC3
Duration : 1 h 36 min
Bit rate mode : Constant
Bit rate : 224 kb/s
Channel(s) : 2 channels
Channel layout : L R
Sampling rate : 48.0 kHz
Frame rate : 31.250 FPS (1536 SPF)
Compression mode : Lossy
Stream size : 155 MiB (0%)
Title : DD 2.0
Language : Spanish
Service kind : Complete Main
Default : No
Forced : No
Original source medium : Blu-ray

Audio #7
ID : 8
ID in the original source medium : 4356 (0x1104)
Format : AC-3
Format/Info : Audio Coding 3
Commercial name : Dolby Digital
Codec ID : A_AC3
Duration : 1 h 36 min
Bit rate mode : Constant
Bit rate : 224 kb/s
Channel(s) : 2 channels
Channel layout : L R
Sampling rate : 48.0 kHz
Frame rate : 31.250 FPS (1536 SPF)
Compression mode : Lossy
Stream size : 155 MiB (0%)
Title : DD 2.0
Language : French
Service kind : Complete Main
Default : No
Forced : No
Original source medium : Blu-ray

Audio #8
ID : 9
ID in the original source medium : 4357 (0x1105)
Format : AC-3
Format/Info : Audio Coding 3
Commercial name : Dolby Digital
Codec ID : A_AC3
Duration : 1 h 36 min
Bit rate mode : Constant
Bit rate : 224 kb/s
Channel(s) : 2 channels
Channel layout : L R
Sampling rate : 48.0 kHz
Frame rate : 31.250 FPS (1536 SPF)
Compression mode : Lossy
Stream size : 155 MiB (0%)
Title : DD 2.0
Language : Italian
Service kind : Complete Main
Default : No
Forced : No
Original source medium : Blu-ray

Audio #9
ID : 10
ID in the original source medium : 4358 (0x1106)
Format : AC-3
Format/Info : Audio Coding 3
Commercial name : Dolby Digital
Codec ID : A_AC3
Duration : 1 h 36 min
Bit rate mode : Constant
Bit rate : 224 kb/s
Channel(s) : 2 channels
Channel layout : L R
Sampling rate : 48.0 kHz
Frame rate : 31.250 FPS (1536 SPF)
Compression mode : Lossy
Stream size : 155 MiB (0%)
Title : DD 2.0
Language : Japanese
Service kind : Complete Main
Default : No
Forced : No
Original source medium : Blu-ray

Text #1
ID : 11
Format : UTF-8
Codec ID : S_TEXT/UTF8
Codec ID/Info : UTF-8 Plain Text
Duration : 1 h 32 min
Bit rate : 70 b/s
Frame rate : 0.255 FPS
Count of elements : 1424
Stream size : 47.7 KiB (0%)
Language : English
Default : Yes
Forced : No

Text #2
ID : 12
Format : UTF-8
Codec ID : S_TEXT/UTF8
Codec ID/Info : UTF-8 Plain Text
Duration : 1 h 36 min
Bit rate : 71 b/s
Frame rate : 0.266 FPS
Count of elements : 1534
Stream size : 50.1 KiB (0%)
Title : SDH
Language : English
Default : No
Forced : No

Text #3
ID : 13
ID in the original source medium : 4768 (0x12A0)
Format : PGS
Muxing mode : zlib
Codec ID : S_HDMV/PGS
Codec ID/Info : Picture based subtitle format used on BDs/HD-DVDs
Duration : 1 h 29 min
Bit rate : 36.4 kb/s
Frame rate : 0.448 FPS
Count of elements : 2394
Stream size : 23.2 MiB (0%)
Language : English
Default : No
Forced : No
Original source medium : Blu-ray

Text #4
ID : 14
ID in the original source medium : 4769 (0x12A1)
Format : PGS
Muxing mode : zlib
Codec ID : S_HDMV/PGS
Codec ID/Info : Picture based subtitle format used on BDs/HD-DVDs
Duration : 1 h 36 min
Bit rate : 38.8 kb/s
Frame rate : 0.320 FPS
Count of elements : 1847
Stream size : 26.7 MiB (0%)
Language : English
Default : No
Forced : No
Original source medium : Blu-ray

Text #5
ID : 15
ID in the original source medium : 4770 (0x12A2)
Format : PGS
Muxing mode : zlib
Codec ID : S_HDMV/PGS
Codec ID/Info : Picture based subtitle format used on BDs/HD-DVDs
Duration : 1 h 29 min
Bit rate : 20.6 kb/s
Frame rate : 0.240 FPS
Count of elements : 1284
Stream size : 13.2 MiB (0%)
Language : Danish
Default : No
Forced : No
Original source medium : Blu-ray

Text #6
ID : 16
ID in the original source medium : 4771 (0x12A3)
Format : PGS
Muxing mode : zlib
Codec ID : S_HDMV/PGS
Codec ID/Info : Picture based subtitle format used on BDs/HD-DVDs
Duration : 1 h 31 min
Bit rate : 27.2 kb/s
Frame rate : 0.305 FPS
Count of elements : 1670
Stream size : 17.7 MiB (0%)
Language : German
Default : No
Forced : No
Original source medium : Blu-ray

Text #7
ID : 17
ID in the original source medium : 4772 (0x12A4)
Format : PGS
Muxing mode : zlib
Codec ID : S_HDMV/PGS
Codec ID/Info : Picture based subtitle format used on BDs/HD-DVDs
Duration : 1 h 31 min
Bit rate : 25.1 kb/s
Frame rate : 0.289 FPS
Count of elements : 1580
Stream size : 16.4 MiB (0%)
Language : Spanish
Default : No
Forced : No
Original source medium : Blu-ray

Text #8
ID : 18
ID in the original source medium : 4773 (0x12A5)
Format : PGS
Muxing mode : zlib
Codec ID : S_HDMV/PGS
Codec ID/Info : Picture based subtitle format used on BDs/HD-DVDs
Duration : 1 h 31 min
Bit rate : 26.3 kb/s
Frame rate : 0.272 FPS
Count of elements : 1488
Stream size : 17.1 MiB (0%)
Language : Spanish
Default : No
Forced : No
Original source medium : Blu-ray

Text #9
ID : 19
ID in the original source medium : 4774 (0x12A6)
Format : PGS
Muxing mode : zlib
Codec ID : S_HDMV/PGS
Codec ID/Info : Picture based subtitle format used on BDs/HD-DVDs
Duration : 1 h 31 min
Bit rate : 30.3 kb/s
Frame rate : 0.434 FPS
Count of elements : 2374
Stream size : 19.8 MiB (0%)
Language : French
Default : No
Forced : No
Original source medium : Blu-ray

Text #10
ID : 20
ID in the original source medium : 4775 (0x12A7)
Format : PGS
Muxing mode : zlib
Codec ID : S_HDMV/PGS
Codec ID/Info : Picture based subtitle format used on BDs/HD-DVDs
Duration : 1 h 29 min
Bit rate : 23.2 kb/s
Frame rate : 0.249 FPS
Count of elements : 1332
Stream size : 14.8 MiB (0%)
Language : Italian
Default : No
Forced : No
Original source medium : Blu-ray

Text #11
ID : 21
ID in the original source medium : 4776 (0x12A8)
Format : PGS
Muxing mode : zlib
Codec ID : S_HDMV/PGS
Codec ID/Info : Picture based subtitle format used on BDs/HD-DVDs
Duration : 1 h 29 min
Bit rate : 16.3 kb/s
Frame rate : 0.362 FPS
Count of elements : 1938
Stream size : 10.4 MiB (0%)
Language : Japanese
Default : No
Forced : No
Original source medium : Blu-ray

Text #12
ID : 22
ID in the original source medium : 4777 (0x12A9)
Format : PGS
Muxing mode : zlib
Codec ID : S_HDMV/PGS
Codec ID/Info : Picture based subtitle format used on BDs/HD-DVDs
Duration : 1 h 29 min
Bit rate : 23.2 kb/s
Frame rate : 0.408 FPS
Count of elements : 2184
Stream size : 14.8 MiB (0%)
Language : Korean
Default : No
Forced : No
Original source medium : Blu-ray

Text #13
ID : 23
ID in the original source medium : 4778 (0x12AA)
Format : PGS
Muxing mode : zlib
Codec ID : S_HDMV/PGS
Codec ID/Info : Picture based subtitle format used on BDs/HD-DVDs
Duration : 1 h 29 min
Bit rate : 23.8 kb/s
Frame rate : 0.236 FPS
Count of elements : 1260
Stream size : 15.2 MiB (0%)
Language : Dutch
Default : No
Forced : No
Original source medium : Blu-ray

Text #14
ID : 24
ID in the original source medium : 4779 (0x12AB)
Format : PGS
Muxing mode : zlib
Codec ID : S_HDMV/PGS
Codec ID/Info : Picture based subtitle format used on BDs/HD-DVDs
Duration : 1 h 29 min
Bit rate : 21.4 kb/s
Frame rate : 0.242 FPS
Count of elements : 1292
Stream size : 13.7 MiB (0%)
Language : Norwegian
Default : No
Forced : No
Original source medium : Blu-ray

Text #15
ID : 25
ID in the original source medium : 4780 (0x12AC)
Format : PGS
Muxing mode : zlib
Codec ID : S_HDMV/PGS
Codec ID/Info : Picture based subtitle format used on BDs/HD-DVDs
Duration : 1 h 29 min
Bit rate : 23.1 kb/s
Frame rate : 0.239 FPS
Count of elements : 1276
Stream size : 14.7 MiB (0%)
Language : Finnish
Default : No
Forced : No
Original source medium : Blu-ray

Text #16
ID : 26
ID in the original source medium : 4781 (0x12AD)
Format : PGS
Muxing mode : zlib
Codec ID : S_HDMV/PGS
Codec ID/Info : Picture based subtitle format used on BDs/HD-DVDs
Duration : 1 h 29 min
Bit rate : 22.3 kb/s
Frame rate : 0.237 FPS
Count of elements : 1270
Stream size : 14.2 MiB (0%)
Language : Swedish
Default : No
Forced : No
Original source medium : Blu-ray

Text #17
ID : 27
ID in the original source medium : 4782 (0x12AE)
Format : PGS
Muxing mode : zlib
Codec ID : S_HDMV/PGS
Codec ID/Info : Picture based subtitle format used on BDs/HD-DVDs
Duration : 21 min 11 s
Bit rate : 676 b/s
Frame rate : 0.009 FPS
Count of elements : 12
Stream size : 105 KiB (0%)
Language : Spanish
Default : No
Forced : No
Original source medium : Blu-ray

Text #18
ID : 28
ID in the original source medium : 4783 (0x12AF)
Format : PGS
Muxing mode : zlib
Codec ID : S_HDMV/PGS
Codec ID/Info : Picture based subtitle format used on BDs/HD-DVDs
Duration : 53 min 16 s
Bit rate : 69 b/s
Frame rate : 0.002 FPS
Count of elements : 6
Stream size : 26.9 KiB (0%)
Language : Japanese
Default : No
Forced : No
Original source medium : Blu-ray

Menu
00:00:00.000 : en:Chapter 01
00:05:11.185 : en:Chapter 02
00:10:51.150 : en:Chapter 03
00:20:02.576 : en:Chapter 04
00:24:10.824 : en:Chapter 05
00:30:00.965 : en:Chapter 06
00:36:52.835 : en:Chapter 07
00:46:17.357 : en:Chapter 08
00:57:28.486 : en:Chapter 09
01:06:19.141 : en:Chapter 10
01:11:18.691 : en:Chapter 11
01:15:48.877 : en:Chapter 12
01:19:29.139 : en:Chapter 13
01:29:36.204 : en:Chapter 14
01:32:28.918 : en:Chapter 15

本帖子中包含更多资源

您需要 登录 才可以下载或查看,没有帐号?立即注册

x
回复

使用道具 举报

0

主题

3

帖子

11

积分

新手上路

Rank: 1

积分
11
发表于 2 小时前 | 显示全部楼层

★〓出售各个城市兼职、楼风、丝足、桑拿、良家 少妇 资料QQ776775829

洗浴 站街 学生妹,少妇,
直接联系小姐本人,安全方便

每月更新一次。保证质量
有需要的朋友请加

QQ 776 775 829
QQ 776 775 829
QQ 776 775 829

加好友请注明城市






回复

使用道具 举报

您需要登录后才可以回帖 登录 | 立即注册

本版积分规则

QQ|Archiver|手机版|小黑屋|原盘天堂 好多盘 点击这里给我发消息

GMT+8, 2023-1-29 10:12 , Processed in 0.044255 second(s), 24 queries .

Powered by Discuz! X3.4

Copyright © 2001-2021, Tencent Cloud.

快速回复 返回顶部 返回列表